На всех торрентах на трекере установлена скидка на скачивание в размере 100 процентов(а).
 Возможность скачивания торрента НЕ зависит от ограничений при низком ратио, низком аплоаде, требуемом ратио или требуемом аплоаде.


Начать новую тему Ответить на тему
Статистика раздачи
Размер: 1.44 ГБ | Добавлен: 06 фев 2014, 11:42 | Скачали: 0
Сидеров: 0  [0 байт/сек]    Личеров: 0  [0 байт/сек]
Пред. тема | След. тема 

Автор
Сообщение

СообщениеДобавлено: 06 фев 2014, 11:42 

Страна: США
Жанр: Комедия, Драма
Год выпуска: 2006
Продолжительность: 01:37:58

Перевод: Профессиональный (двухголосый закадровый) НТВ+
Cубтитры: нет
Режиссер: Терри Цвигофф (Цвайгофф) / Terry Zwigoff

В ролях: Макс Мингелла, София Майлс, Джон Малкович, Джим Броудбент, Мэтт Кислар, Этан Сапли, Джоэль Мур, Ник Свардсон, Анджелика Хьюстон, Адам Скотт..

Вкратце: Kак говорится, гениальных художников много, а вот тех, кто рисовать умеет — мало… Юный Джереми Платц был уверен: уж он-то со своим талантом наверняка пробьется в лучшие ученики престижной школы искусств. А там недалеко и до мировой славы! Вот только реальность оказывается не слишком близка к тому, как герой себе все представлял.
Быстрее всего набирают очки вовсе не те ученики, кто действительно даровит, а те, кто умеет себя грамотно пропиарить. Скандальная самореклама приносит больше, чем бессонные ночи у мольберта. Осознав эту простую истину, Джером разрабатывает хитроумный план, который непременно должен сделать его суперзвездой величайшей ярмарки тщеславия — американской арт — сцены…


Качество видео: HDTVRip [Исходник 1080i]
Формат видео: AVI

Видео: 720x400 (1.80:1), 25 fps, XviD build 50 ~1899 kbps avg, 0.26 bit/pixel
Аудио: 48 kHz, AC3 Dolby Digital, 2/0 (L,R) ch, ~192 kbps
MediaInfo
Тайны школы искусств - Art School Confidential [Rip by Ledy_X].avi
Format : AVI
Format/Info : Audio Video Interleave
File size : 1.44 GiB
Duration : 1h 37mn
Overall bit rate : 2 102 Kbps
Movie name : Тайны школы искусств - Art School Confidential [Rip by Ledy_X]
Director : Rip by Ledy_X
Writing application : VirtualDubMod 1.5.10.3 | http://www.virtualdub-fr.org || (build 2550/release)
Copyright : Edich2
Comment : RuTracker.org

Video
ID : 0
Format : MPEG-4 Visual
Format profile : Advanced Simple@L5
Format settings, BVOP : 2
Format settings, QPel : No
Format settings, GMC : No warppoints
Format settings, Matrix : Custom
Codec ID : XVID
Codec ID/Hint : XviD
Duration : 1h 37mn
Bit rate : 1 900 Kbps
Width : 720 pixels
Height : 400 pixels
Display aspect ratio : 16:9
Frame rate : 25.000 fps
Color space : YUV
Chroma subsampling : 4:2:0
Bit depth : 8 bits
Scan type : Progressive
Compression mode : Lossy
Bits/(Pixel*Frame) : 0.264
Stream size : 1.30 GiB (90%)
Writing library : XviD 1.2.1 (UTC 2008-12-04)

Audio
ID : 1
Format : AC-3
Format/Info : Audio Coding 3
Mode extension : CM (complete main)
Format settings, Endianness : Big
Codec ID : 2000
Duration : 1h 37mn
Bit rate mode : Constant
Bit rate : 192 Kbps
Channel(s) : 2 channels
Channel positions : Front: L R
Sampling rate : 48.0 KHz
Bit depth : 16 bits
Compression mode : Lossy
Stream size : 135 MiB (9%)
Alignment : Split accross interleaves
Interleave, duration : 40 ms (1.00 video frame)
Interleave, preload duration : 500 ms
Скриншоты


загрузка...
Правила, инструкции, FAQ!!!
Торрент  Добавлен [06 фев 2014, 11:42] Скачать торрент
Скачать торрент
[ Размер 14.93 КБ / Просмотров 6 ]

Статус  
 
Размер  1.44 ГБ
Приватный: Нет (DHT включён)
.torrent скачан  0
Как залить торрент? | Как скачать Torrent? | Как смотреть и слушать онлайн?  


     Отправить личное сообщение
   
Страница 1 из 1
Показать сообщения за:  Поле сортировки  
Начать новую тему Ответить на тему

   Похожие торренты   Автор   Ответы   Просмотры   Последнее сообщение 
В этой теме нет новых непрочитанных сообщений. Скачать торрент Плохой Санта / Bad Santa (Терри Цвигофф / Terry Zwigoff) [2003 г., комедия, BDRip-AVC] Dub

в форуме Комедии, Размер: 1.47 ГБ, Здоровье: 0%

Anonymous

0
0|0

40
0

24 апр 2014, 14:06

Anonymous Перейти к последнему сообщению

В этой теме нет новых непрочитанных сообщений. Скачать торрент Проверен [iPad] Страх и ненависть в Лас-Вегасе / Fear and Loathing in Las Vegas (Терри Гиллиам / Terry Gilliam) [1998, комедия, драма, BDRip 720p]

в форуме Фильмы для iPod, iPhone, iPad, Размер: 3.18 ГБ, Здоровье: 100%

Гость

0
25|8

25
2

12 май 2015, 00:14

Гость Перейти к последнему сообщению

В этой теме нет новых непрочитанных сообщений. Скачать торрент Братья Гримм / The Brothers Grimm (Терри Гиллиам / Terry Gilliam) [2005 г., США, фэнтези, триллер, комедия, приключения, BDRip-AVC] Dub + DVO + Original (Eng) + Sub (Rus, Eng)

в форуме 720p | 1080p, Размер: 4.65 ГБ, Здоровье: 100%

Anonymous

0
41|14

40
0

10 фев 2014, 13:04

Anonymous Перейти к последнему сообщению

В этой теме нет новых непрочитанных сообщений. Скачать торрент Запретная дорога / Заповедная дорога / Reservation Road (Терри Джордж / Terry George) [2007, Германия / США, Психологическая драма, DVDRip-AVC] DVO + Sub rus + original eng

в форуме 720p | 1080p, Размер: 1.9 ГБ, Здоровье: 100%

Anonymous

0
3|3

61
1

13 фев 2014, 11:38

Anonymous Перейти к последнему сообщению

В этой теме нет новых непрочитанных сообщений. Скачать торрент Проверен [iPod] Страх и ненависть в Лас-Вегасе / Fear and Loathing in Las Vegas (H.264) [320x128] (Терри Гиллиам) [1998 г., Криминальная комедия/Драма, DVDRip]

в форуме Фильмы для iPod, iPhone, iPad, Размер: 749.89 МБ, Здоровье: 100%

Anonymous

0
7|2

21
0

12 май 2015, 00:05

Anonymous Перейти к последнему сообщению



Сейчас этот форум просматривают: нет зарегистрированных пользователей и гости: 1


Вы не можете начинать темы
Вы не можете отвечать на сообщения
Вы не можете редактировать свои сообщения
Вы не можете удалять свои сообщения
Вы не можете добавлять вложения

Перейти:  

!ВНИМАНИЕ!
 Ресурс не предоставляет электронные версии произведений, а занимается лишь коллекционированием и каталогизацией ссылок, присылаемых и публикуемых на форуме нашими читателями. Если вы являетесь правообладателем какого-либо представленного материала и не желаете чтобы ссылка на него находилась в нашем каталоге, свяжитесь с нами и мы незамедлительно удалим её. Файлы для обмена на трекере предоставлены пользователями сайта, и администрация не несёт ответственности за их содержание. Просьба не заливать файлы, защищенные авторскими правами, а также файлы нелегального содержания!