На всех торрентах на трекере установлена скидка на скачивание в размере 100 процентов(а).
 Возможность скачивания торрента НЕ зависит от ограничений при низком ратио, низком аплоаде, требуемом ратио или требуемом аплоаде.


Начать новую тему Ответить на тему
Статистика раздачи
Размер: 1.4 ГБ | Добавлен: 03 фев 2014, 12:30 | Скачали: 0
Сидеров: 0  [0 байт/сек]    Личеров: 0  [0 байт/сек]
Пред. тема | След. тема 

Автор
Сообщение

СообщениеДобавлено: 03 фев 2014, 12:30 

Ограбление по-английски / High Heels And Low Lifes

Страна: Великобритания, США
Жанр: Криминальная комедия
Год выпуска: 2001
Продолжительность: 01:22:15

Перевод: Профессиональный (многоголосый закадровый)
Cубтитры: нет
Режиссер: Мэл Смит / Mel Smith

В ролях: Минни Драйвер, Мэри МакКормак, Кевин МакНэлли, Марк Уильямс, Дэнни Дайер, Майкл Гэмбон, Даррен Бойд, Саймон Скардифилд, Лен Коллин, Джейн Патридж

Описание: Когда собираешься украсть десять миллионов долларов, любая непредвиденная случайность может стоить слишком дорого. А тем более две непредвиденные случайности — в лице актрисы Фрэнсис и ее взбалмошной подружки, медсестры Шеннон.

Случайно узнав о видах группы лондонских бандитов на чужие $10 000 000, они безрассудно собрались шантажировать этих опасных парней с целью отхватить свой «кусочек пирога». Большая ошибка для дамочек, знакомых с такими делами только по фильмам. Но еще большая ошибка для самих жуликов, которые неосмотрительно решили, что могут легко избавиться от настырных дилетанток!

Доп. информация: Релиз

Качество видео: HDTVRip [Исходник 1080i]
Формат видео: AVI

Видео: 720x400 (1.80:1), 25 fps, XviD build 50 ~2049 kbps avg, 0.28 bit/pixel
Аудио: 48 kHz, AC3 Dolby Digital, 3/2 (L,C,R,l,r) + LFE ch, ~384 kbps
MediaInfo
Ограбление по-английски - High Heels and Low Lifes [by Edich2].avi
Format : AVI
Format/Info : Audio Video Interleave
File size : 1.40 GiB
Duration : 1h 22mn
Overall bit rate : 2 444 Kbps
Movie name : Ограбление по-английски - High Heels and Low Lifes [by Edich2]
Director : Rip by Edich2
Writing application : VirtualDubMod 1.5.10.3 | www.virtualdub-fr.org || (build 2550/release)
Comment : RuTracker.org

Video
ID : 0
Format : MPEG-4 Visual
Format profile : Advanced Simple@L5
Format settings, BVOP : 2
Format settings, QPel : No
Format settings, GMC : No warppoints
Format settings, Matrix : Custom
Codec ID : XVID
Codec ID/Hint : XviD
Duration : 1h 22mn
Bit rate : 2 050 Kbps
Width : 720 pixels
Height : 400 pixels
Display aspect ratio : 16:9
Frame rate : 25.000 fps
Color space : YUV
Chroma subsampling : 4:2:0
Bit depth : 8 bits
Scan type : Progressive
Compression mode : Lossy
Bits/(Pixel*Frame) : 0.285
Stream size : 1.18 GiB (84%)
Writing library : XviD 1.2.1 (UTC 2008-12-04)

Audio
ID : 1
Format : AC-3
Format/Info : Audio Coding 3
Mode extension : CM (complete main)
Format settings, Endianness : Big
Codec ID : 2000
Duration : 1h 22mn
Bit rate mode : Constant
Bit rate : 384 Kbps
Channel count : 6 channels
Channel positions : Front: L C R, Side: L R, LFE
Sampling rate : 48.0 KHz
Bit depth : 16 bits
Compression mode : Lossy
Stream size : 226 MiB (16%)
Alignment : Split accross interleaves
Interleave, duration : 40 ms (1.00 video frame)
Interleave, preload duration : 500 ms
Скриншоты


загрузка...
Правила, инструкции, FAQ!!!
Торрент  Добавлен [03 фев 2014, 12:30] Скачать торрент
Скачать торрент
[ Размер 14.58 КБ / Просмотров 10 ]

Статус  
 
Размер  1.4 ГБ
Приватный: Нет (DHT включён)
.torrent скачан  0
Как залить торрент? | Как скачать Torrent? | Как смотреть и слушать онлайн?  


     Отправить личное сообщение
   
Страница 1 из 1
Показать сообщения за:  Поле сортировки  
Начать новую тему Ответить на тему

   Похожие торренты   Автор   Ответы   Просмотры   Последнее сообщение 
В этой теме нет новых непрочитанных сообщений. Скачать торрент Проверен Секретная служба Санта-Клауса / Arthur Christmas (Сара Смит, Бэрри Кук / Sarah Smith, Barry Cook) [2011, Великобритания, США, мультфильм, драма, комедия, семейный, Blu-ray 1080p] BD3D

в форуме 3D Мультфильмы, Размер: 40.37 ГБ, Здоровье: 100%

Anonymous

0
1|0

3
0

07 сен 2016, 17:41

Anonymous Перейти к последнему сообщению

В этой теме нет новых непрочитанных сообщений. Скачать торрент Ограбление по-французски / Crime Spree (Wanted) (Брэд Мирман / Brad Mirman) [2003 г., Криминальная комедия, DVDRip]

в форуме Комедии, Размер: 1.47 ГБ, Здоровье: 100%

Anonymous

0
23|0

56
1

25 апр 2014, 08:55

Anonymous Перейти к последнему сообщению

В этой теме нет новых непрочитанных сообщений. Скачать торрент Джей и молчаливый Боб наносят ответный удар / Jay And Silent Bob Strike Back (Кевин Смит / Kevin Smith) [2001 г., комедия, приключения, HDRip]

в форуме Комедии, Размер: 746.12 МБ, Здоровье: 100%

Anonymous

0
39|13

45
0

10 фев 2014, 13:06

Anonymous Перейти к последнему сообщению

В этой теме нет новых непрочитанных сообщений. Скачать торрент Джей и молчаливый Боб наносят ответный удар / Jay and Silent Bob Strike Back (Кевин Смит / Kevin Smith) [2001 г., пародийная комедия, мелодрама, приключения, BDRip-AVC] Dub

в форуме Комедии, Размер: 2.16 ГБ, Здоровье: 100%

Anonymous

0
37|12

61
0

22 апр 2014, 11:50

Anonymous Перейти к последнему сообщению

В этой теме нет новых непрочитанных сообщений. Скачать торрент Отчаянные авантюристы / High Adventure (Марк Роупер / Mark Roper) [2001, Великобритания, Болгария, Канада, Приключения, Боевик, Комедия, DVDRip]

в форуме Приключения, Размер: 742.71 МБ, Здоровье: 100%

Anonymous

0
1|0

118
0

28 апр 2014, 22:42

Anonymous Перейти к последнему сообщению



Сейчас этот форум просматривают: нет зарегистрированных пользователей и гости: 1


Вы не можете начинать темы
Вы не можете отвечать на сообщения
Вы не можете редактировать свои сообщения
Вы не можете удалять свои сообщения
Вы не можете добавлять вложения

Перейти:  

!ВНИМАНИЕ!
 Ресурс не предоставляет электронные версии произведений, а занимается лишь коллекционированием и каталогизацией ссылок, присылаемых и публикуемых на форуме нашими читателями. Если вы являетесь правообладателем какого-либо представленного материала и не желаете чтобы ссылка на него находилась в нашем каталоге, свяжитесь с нами и мы незамедлительно удалим её. Файлы для обмена на трекере предоставлены пользователями сайта, и администрация не несёт ответственности за их содержание. Просьба не заливать файлы, защищенные авторскими правами, а также файлы нелегального содержания!