На всех торрентах на трекере установлена скидка на скачивание в размере 100 процентов(а).
 Возможность скачивания торрента НЕ зависит от ограничений при низком ратио, низком аплоаде, требуемом ратио или требуемом аплоаде.


Начать новую тему Ответить на тему
Статистика раздачи
Размер: 1.38 ГБ | Добавлен: 01 фев 2014, 19:06 | Скачали: 0
Сидеров: 0  [0 байт/сек]    Личеров: 0  [0 байт/сек]
Пред. тема | След. тема 

Автор
Сообщение

СообщениеДобавлено: 01 фев 2014, 19:06 

Голый пистолет 33 1/3: Последний выпад / Naked Gun 33 1/3: The Final Insult

Страна: США
Жанр: Пародийная комедия
Год выпуска: 1994
Продолжительность: 01:22:31

Перевод: Авторский (одноголосый закадровый) - Юрий Живов
Cубтитры: нет
Режиссер: Питер Сигал / Peter Segal

В ролях: Лесли Нильсен, Присцилла Пресли, Джордж Кеннеди, О. Дж. Симпсон, Фред Уорд, Кэтлин Фримен, Анна Николь Смит, Эллен Грин, Эд Уильямс, Рэй Бирк

Описание: В тюрьму к известному бомбисту-террористу Рокко приходит представитель арабских террористов и предлагает ему и его мамаше совершить ужасающий теракт за 5 миллионов. Остановить его может только наш лейтенант Фрэнк Дребин, ушедший на пенсию и решающий брачные проблемы с супругой-адвокатессой.

Доп. информация: Данный релиз выложен по просьбе ale_x2008
За дорожку с переводом Ю. Живова из личной коллекции VHS, синхронизацию и наложение при помощи Sony Vegas и VirtualDubMod благодарим - ale_x2008
За оцифровку звуковой дорожки благодарим - cinemasonar
За видео благодарим - vladaudi

Сэмпл: http://multi-up.com/933025

Качество видео: HDTVRip
Формат видео: AVI

Видео: XviD build 46, 720x384 (1.88:1), 23.976 fps, 2136 kbps avg, 0.32 bit/pixel
Аудио: AC3 Dolby Digital, 48000Hz, 2/0 (L,R) ch, 256 kbps avg
MediaInfo
Общее
Полное имя : E:\Раздачи на треккерах\3. Naked Gun 33 1,3 - The Final Insult (Голый пистолет 33 1,3 - Последний выпад) HDTVRip Jivov-256 Kbps.avi
Формат : AVI
Формат/Информация : Audio Video Interleave
Размер файла : 1,38 Гбайт
Продолжительность : 1 ч. 22 м.
Общий поток : 2402 Кбит/сек
Название фильма : Golyi.Pistolet.3.1994.XviD.HDTVRip
Режиссёр : vladaudi (video+MVO) & by-Magyr(zvuk.Mihalev.STS.Glanc)
Жанр : Comedy
Программа кодирования : VirtualDubMod 1.5.10.3 (build 2550/release)
Библиотека кодирования : VirtualDubMod build 2550/release
Формат оригинала/Имя : Home Video
Правообладатель : vladaudi (HDTVRip 720)
Примечание : 12.09.2010

Видео
Идентификатор : 0
Формат : MPEG-4 Visual
Профиль формата : Advanced Simple@L5
Параметр BVOP формата : 1
Параметр QPel формата : Нет
Параметр GMC формата : Без точки перехода
Параметр матрицы формата : Default (MPEG)
Идентификатор кодека : XVID
Идентификатор кодека/Подсказка : XviD
Продолжительность : 1 ч. 22 м.
Битрейт : 2137 Кбит/сек
Ширина : 720 пикселей
Высота : 384 пикселя
Соотношение сторон : 16:9
Соотношение сторон в оригинале : 1,85:1
Частота кадров : 23,976 кадра/сек
Цветовое пространство : YUV
Субдискретизация насыщенности : 4:2:0
Битовая глубина : 8 бит
Тип развёртки : Прогрессивная
Метод сжатия : С потерями
Бит/(Пиксели*Кадры) : 0.322
Размер потока : 1,23 Гбайт (89%)
Библиотека кодирования : XviD 1.1.2 (UTC 2006-11-01)

Аудио
Идентификатор : 1
Формат : AC-3
Формат/Информация : Audio Coding 3
Расширение режима : CM (complete main)
Параметр Endianness формата : Big
Идентификатор кодека : 2000
Продолжительность : 1 ч. 22 м.
Вид битрейта : Постоянный
Битрейт : 256 Кбит/сек
Каналы : 2 канала
Расположение каналов : Front: L R
Частота : 48,0 КГц
Битовая глубина : 16 бит
Метод сжатия : С потерями
Размер потока : 151 Мбайт (11%)
Выравнивание : Разделение по промежуткам
Продолжительность промежутка : 42 мс. (1,00 видеокадр)
Время предзагрузки промежутка : 500 мс.
Скриншот c названием фильма
Скриншоты

загрузка...
Правила, инструкции, FAQ!!!
Торрент  Добавлен [01 фев 2014, 19:06] Скачать торрент
Скачать торрент
[ Размер 14.43 КБ / Просмотров 16 ]

Статус  
 
Размер  1.38 ГБ
Приватный: Нет (DHT включён)
.torrent скачан  0
Как залить торрент? | Как скачать Torrent? | Как смотреть и слушать онлайн?  


     Отправить личное сообщение
   
Страница 1 из 1
Показать сообщения за:  Поле сортировки  
Начать новую тему Ответить на тему

   Похожие торренты   Автор   Ответы   Просмотры   Последнее сообщение 
В этой теме нет новых непрочитанных сообщений. Скачать торрент Всё или ничего / The Longest Yard (Питер Сигал / Peter Segal) [2005, комедия, драма, спорт, HDTVRip] Dub

в форуме Комедии, Размер: 1.46 ГБ, Здоровье: 0%

Anonymous

0
0|0

33
0

03 фев 2014, 12:32

Anonymous Перейти к последнему сообщению

В этой теме нет новых непрочитанных сообщений. Скачать торрент 50 первых поцелуев / 50 First Dates (Питер Сигал / Peter Segal) [2004, США, комедия, мелодрама, BDRip-AVC] Dub

в форуме Комедии, Размер: 2.18 ГБ, Здоровье: 100%

Anonymous

0
56|19

25
0

28 апр 2014, 22:42

Anonymous Перейти к последнему сообщению

В этой теме нет новых непрочитанных сообщений. Скачать торрент Напряги извилины / Get Smart (Питер Сигал / Peter Segal) [2008 г., Боевик, триллер, комедия, криминал, детектив, BDRip-AVC]

в форуме Боевики, Размер: 2.04 ГБ, Здоровье: 100%

Anonymous

0
26|8

41
1

17 фев 2014, 08:04

Anonymous Перейти к последнему сообщению

В этой теме нет новых непрочитанных сообщений. Скачать торрент Проверен Последний вариант / Final combination (1994) HDTVRip | P2

в форуме Триллеры, Размер: 1.45 ГБ, Здоровье: 100%

Гость

0
48|15

157
77

12 апр 2016, 21:01

Гость Перейти к последнему сообщению

В этой теме нет новых непрочитанных сообщений. Скачать торрент Проверен Jamie Oliver - The Naked Chef 2 / Джеймс Оливер - Голый Шеф 2 [2003, PDF, ENG]

в форуме Кулинария, Размер: 1.13 МБ, Здоровье: 100%

Anonymous

0
1|0

5
1

19 окт 2016, 23:01

Anonymous Перейти к последнему сообщению



Сейчас этот форум просматривают: нет зарегистрированных пользователей и гости: 1


Вы не можете начинать темы
Вы не можете отвечать на сообщения
Вы не можете редактировать свои сообщения
Вы не можете удалять свои сообщения
Вы не можете добавлять вложения

Перейти:  

!ВНИМАНИЕ!
 Ресурс не предоставляет электронные версии произведений, а занимается лишь коллекционированием и каталогизацией ссылок, присылаемых и публикуемых на форуме нашими читателями. Если вы являетесь правообладателем какого-либо представленного материала и не желаете чтобы ссылка на него находилась в нашем каталоге, свяжитесь с нами и мы незамедлительно удалим её. Файлы для обмена на трекере предоставлены пользователями сайта, и администрация не несёт ответственности за их содержание. Просьба не заливать файлы, защищенные авторскими правами, а также файлы нелегального содержания!