На всех торрентах на трекере установлена скидка на скачивание в размере 100 процентов(а).
 Возможность скачивания торрента НЕ зависит от ограничений при низком ратио, низком аплоаде, требуемом ратио или требуемом аплоаде.


Начать новую тему Ответить на тему
Статистика раздачи
Размер: 1.46 ГБ | Добавлен: 21 янв 2014, 21:09 | Скачали: 50
Сидеров: 21  [0 байт/сек]    Личеров: 5  [0 байт/сек]
Пред. тема | След. тема 

Автор
Сообщение

СообщениеДобавлено: 21 янв 2014, 21:09 

Страна: Франция
Производство: Renn Productions
Жанр: комедия, приключения
Год выпуска: 1983
Продолжительность: 01:36:33

Перевод: Профессиональный (дублированный)
Оригинальная аудиодорожка: французский
Cубтитры: нет

Режиссер: Филипп Де Брока / Philippe de Broca

В ролях:
Катрин Денёв, Филипп Нуаре, Жан-Франсуа Балмер, Жак Франсуа, Жан Бенгиги, Жозеф Момо, Вивиан Рид, Пьер Майкл, Гордон Хит, Рэймонд Акилон...

Роли дублировали:
Галина Чигинская, Владимир Трошин, Геннадий Богачёв, Александр Демьяненко, Кирилл Лавров...

Описание:
Фильм снят в экзотических местах Африки, куда прилетает героиня фильма, чтобы изучить возможность строительства отеля для туристов. Там она встречает своего мужа, летчика, охраняющего заповедник от браконьеров.
Они расстались несколько лет назад, но так и не смогли забыть друг друга. Он делает все возможное, чтобы воспрепятствовать уничтожению этого нетронутого уголка природы. Нешуточное столкновение интересов, забавные приключения и настоящая опасность возрождают старую любовь с новой силой...







Исходник: DVD5 R5
Тип релиза: DVDRip
Контейнер: AVI

Видео: 704x304 (2,35:1), 23,976 fps, XviD ~ 1384 kbps avg, 0.270 bit/pixel
Аудио: 48 kHz, Dolby Digital AC3 5.1, 384 kbps DUB
Аудио: 48 kHz, Dolby Digital AC3 5.1, 384 kbps Французский

Раздача от:
Общее
Полное имя : Afrikanec.1983.DVDRip_[New-team]_by_AVP_Studio.avi
Формат : AVI
Формат/Информация : Audio Video Interleave
Размер файла : 1,46 Гбайт
Продолжительность : 1 ч. 36 м.
Общий поток : 2165 Кбит/сек
Программа кодирования : VirtualDubModRus 1.5.10.2 (build 2542/release)
Библиотека кодирования : VirtualDubMod build 2542/release

Видео
Идентификатор : 0
Формат : MPEG-4 Visual
Профиль формата : Advanced Simple@L5
Параметр BVOP формата : 1
Параметр QPel формата : Нет
Параметр GMC формата : Без точки перехода
Параметр матрицы формата : Выборочная
Идентификатор кодека : XVID
Идентификатор кодека/Подсказка : XviD
Продолжительность : 1 ч. 36 м.
Битрейт : 1384 Кбит/сек
Ширина : 704 пикселя
Высота : 304 пикселя
Соотношение сторон : 2,35:1
Частота кадров : 23,976 кадра/сек
Цветовое пространство : YUV
Субдискретизация насыщенности : 4:2:0
Битовая глубина : 8 бит
Тип развёртки : Прогрессивная
Метод сжатия : С потерями
Бит/(Пиксели*Кадры) : 0.270
Размер потока : 956 Мбайт (64%)
Библиотека кодирования : XviD 73

Аудио #1
Идентификатор : 1
Формат : AC-3
Формат/Информация : Audio Coding 3
Расширение режима : CM (complete main)
Параметр Endianness формата : Big
Идентификатор кодека : 2000
Продолжительность : 1 ч. 36 м.
Вид битрейта : Постоянный
Битрейт : 384 Кбит/сек
Каналы : 6 каналов
Расположение каналов : Front: L C R, Side: L R, LFE
Частота : 48,0 КГц
Битовая глубина : 16 бит
Метод сжатия : С потерями
Размер потока : 265 Мбайт (18%)
Выравнивание : Разделение по промежуткам
Продолжительность промежутка : 42 мс. (1,00 видеокадр)
Время предзагрузки промежутка : 500 мс.

Аудио #2
Идентификатор : 2
Формат : AC-3
Формат/Информация : Audio Coding 3
Расширение режима : CM (complete main)
Параметр Endianness формата : Big
Идентификатор кодека : 2000
Продолжительность : 1 ч. 36 м.
Вид битрейта : Постоянный
Битрейт : 384 Кбит/сек
Каналы : 6 каналов
Расположение каналов : Front: L C R, Side: L R, LFE
Частота : 48,0 КГц
Битовая глубина : 16 бит
Метод сжатия : С потерями
Размер потока : 265 Мбайт (18%)
Выравнивание : Разделение по промежуткам
Продолжительность промежутка : 42 мс. (1,00 видеокадр)
Время предзагрузки промежутка : 500 мс


загрузка...
Правила, инструкции, FAQ!!!
Торрент  Добавлен [21 янв 2014, 21:09] Скачать торрент
Скачать торрент
[ Размер 15.21 КБ / Просмотров 6 ]

Статус  
 
Размер  1.46 ГБ
Приватный: Нет (DHT включён)
.torrent скачан  50
Как залить торрент? | Как скачать Torrent? | Как смотреть и слушать онлайн?  


     Отправить личное сообщение
   
Страница 1 из 1
Показать сообщения за:  Поле сортировки  
Начать новую тему Ответить на тему

   Похожие торренты   Автор   Ответы   Просмотры   Последнее сообщение 
В этой теме нет новых непрочитанных сообщений. Скачать торрент Проверен Африканец / L'Africain (1983) BDRip 1080p | D, P

в форуме 720p | 1080p, Размер: 9.47 ГБ, Здоровье: 91%

Anonymous

0
31|34

41
62

31 окт 2014, 20:16

Anonymous Перейти к последнему сообщению

В этой теме нет новых непрочитанных сообщений. Скачать торрент Проверен Уильям Контон / Р.Сариф Исмон - Африканец / Роковое предсказание [1987, PDF, RUS]

в форуме Зарубежная литература (XX и XXI век), Размер: 8.78 МБ, Здоровье: 100%

Anonymous

0
1|0

0
0

08 сен 2016, 18:55

Anonymous Перейти к последнему сообщению

В этой теме нет новых непрочитанных сообщений. Скачать торрент Проверен Ученик лекаря (1983) DVDRip [H.264]

в форуме Сказки, Размер: 1.21 ГБ, Здоровье: 100%

Anonymous

0
3|3

156
3

18 сен 2014, 17:12

Anonymous Перейти к последнему сообщению

В этой теме нет новых непрочитанных сообщений. Скачать торрент Проверен [ru] Золушка 80 / cenerentola 80 (1983) DVDRip

в форуме Видео для смартфонов и КПК, Размер: 759.33 МБ, Здоровье: 100%

Anonymous

0
5|1

37
0

25 окт 2014, 23:11

Anonymous Перейти к последнему сообщению

В этой теме нет новых непрочитанных сообщений. Скачать торрент День командира дивизии (1983) DVDRip-AVC

в форуме 720p | 1080p, Размер: 1.46 ГБ, Здоровье: 0%

Anonymous

0
0|0

39
0

25 янв 2014, 09:57

Anonymous Перейти к последнему сообщению



Сейчас этот форум просматривают: нет зарегистрированных пользователей и гости: 1


Вы не можете начинать темы
Вы не можете отвечать на сообщения
Вы не можете редактировать свои сообщения
Вы не можете удалять свои сообщения
Вы не можете добавлять вложения

Перейти:  

!ВНИМАНИЕ!
 Ресурс не предоставляет электронные версии произведений, а занимается лишь коллекционированием и каталогизацией ссылок, присылаемых и публикуемых на форуме нашими читателями. Если вы являетесь правообладателем какого-либо представленного материала и не желаете чтобы ссылка на него находилась в нашем каталоге, свяжитесь с нами и мы незамедлительно удалим её. Файлы для обмена на трекере предоставлены пользователями сайта, и администрация не несёт ответственности за их содержание. Просьба не заливать файлы, защищенные авторскими правами, а также файлы нелегального содержания!