На всех торрентах на трекере установлена скидка на скачивание в размере 100 процентов(а).
 Возможность скачивания торрента НЕ зависит от ограничений при низком ратио, низком аплоаде, требуемом ратио или требуемом аплоаде.


Начать новую тему Ответить на тему
Статистика раздачи
Размер: 744.58 МБ | Добавлен: 19 янв 2014, 22:05 | Скачали: 1
Сидеров: 0  [0 байт/сек]    Личеров: 1  [0 байт/сек]
Пред. тема | След. тема 

Автор
Сообщение

СообщениеДобавлено: 19 янв 2014, 22:05 

Название:Крепкие тела
Оригинальное название:Hardbodies
Перевод: Профессиональный (многоголосый, закадровый), cубтитры: отсутствуют
Формат: DVDRip, AVI, XviD, MP3
Страна: США
Режиссер: Марк Гриффитс
Жанр: эротика, комедия
Продолжительность: 01:26:49
Год выпуска: 1984

В ролях: Грант Крамер, Тил Робертс, Гари Вуд, Майкл Раппорт, Сорреллс Пиккард, Роберта Коллинз, Синди Сильвер, Кортни Гейнс, Кристи Сомерс, Кристал Шоу

Описание: Трое немолодых мужчин отправляются отдыхать на побережье Калифорнии. Вскоре они понимают, что хорошего отеля и кабриолета недостаточно, чтобы пользоваться успехом у девушек. Тогда друзья нанимают смазливого студента, который берется помочь им вернуть форму.



Видео: 672x320 (2.10:1), 23.976 fps, XviD MPEG-4, 1061 kbps avg, 0.21 bit/pixel
Аудио: 48 kHz, MPEG Layer 3, 2 ch, 128.00 kbps avg

Общее
Полное имя : Cocuments and SettingsАдминМои документыDownloadsHardbodies.avi
Формат : AVI
Формат/Информация : Audio Video Interleave
Размер файла : 745 Мбайт
Продолжительность : 1 ч. 26 м.
Общий поток : 1199 Кбит/сек
Программа кодирования : VirtualDubMod 1.5.10.2 (build 2540/release)
Библиотека кодирования : VirtualDubMod build 2540/release
Видео
Идентификатор : 0
Формат : MPEG-4 Visual
Профиль формата : Advanced Simple@L5
Параметр BVOP формата : 2
Параметр QPel формата : Нет
Параметр GMC формата : Без точки перехода
Параметр матрицы формата : Default (MPEG)
Режим смешивания : Сжатый битовый поток
Идентификатор кодека : XVID
Идентификатор кодека/Подсказка : XviD
Продолжительность : 1 ч. 26 м.
Битрейт : 1062 Кбит/сек
Ширина : 672 пикселя
Высота : 320 пикселей
Соотношение сторон : 2,100
Частота кадров : 23,976 кадра/сек
Цветовое пространство : YUV
Субдискретизация насыщенности : 4:2:0
Битовая глубина : 8 бит
Тип развёртки : Прогрессивная
Метод сжатия : С потерями
Бит/(Пиксели*Кадры) : 0.206
Размер потока : 659 Мбайт (89%)
Библиотека кодирования : XviD 1.2.1 (UTC 2008-12-04)
Аудио
Идентификатор : 1
Формат : MPEG Audio
Версия формата : Version 1
Профиль формата : Layer 3
Режим : Joint stereo
Расширение режима : MS Stereo
Идентификатор кодека : 55
Идентификатор кодека/Подсказка : MP3
Продолжительность : 1 ч. 26 м.
Вид битрейта : Постоянный
Битрейт : 128 Кбит/сек
Каналы : 2 канала
Частота : 48,0 КГц
Метод сжатия : С потерями
Размер потока : 79,4 Мбайт (11%)
Выравнивание : Соединение по промежуткам
Продолжительность промежутка : 42 мс. (1,00 видеокадр)
Время предзагрузки промежутка : 504 мс.













загрузка...
Правила, инструкции, FAQ!!!
Торрент  Добавлен [19 янв 2014, 22:05] Скачать торрент
Скачать торрент
[ Размер 14.98 КБ / Просмотров 7 ]

Статус  
 
Размер  744.58 МБ
Приватный: Нет (DHT включён)
.torrent скачан  1
Как залить торрент? | Как скачать Torrent? | Как смотреть и слушать онлайн?  


     Отправить личное сообщение
   
Страница 1 из 1
Показать сообщения за:  Поле сортировки  
Начать новую тему Ответить на тему

   Похожие торренты   Автор   Ответы   Просмотры   Последнее сообщение 
В этой теме нет новых непрочитанных сообщений. Скачать торрент Крепкие тела + Крепкие тела 2 / Hardbodies + Hardbodies 2 (1984-1986) DVDRip-AVC

в форуме Дилогии, Размер: 2.93 ГБ, Здоровье: 100%

Anonymous

0
4|1

245
5

25 янв 2014, 19:56

Anonymous Перейти к последнему сообщению

В этой теме нет новых непрочитанных сообщений. Скачать торрент Крепкие тела 2 / Hardbodies 2 (1986) DVDRip

в форуме Комедии, Размер: 743.04 МБ, Здоровье: 0%

Anonymous

0
0|0

44
1

19 янв 2014, 23:13

Anonymous Перейти к последнему сообщению

В этой теме нет новых непрочитанных сообщений. Скачать торрент Проверен Макс А. Эггерт | Язык тела. Впечатляйте, убеждайте и добивайтесь успеха с помощью языка тела (2012) [FB2, RTF]

в форуме Популярная психология, Размер: 10.04 МБ, Здоровье: 100%

Anonymous

0
44|8

57
10

19 янв 2016, 20:06

Anonymous Перейти к последнему сообщению

В этой теме нет новых непрочитанных сообщений. Скачать торрент Проверен Джоан Либманн-Смит, Жаклин Нарди Эган | Знаки тела: Как по знакам тела узнать о своем здоровье и предупредить заболевания (2008) [PDF, JPG]

в форуме Эзотерика, гадания, магия, фен-шуй, Размер: 731.66 МБ, Здоровье: 100%

Anonymous

0
141|8

51
8

11 дек 2015, 01:16

Anonymous Перейти к последнему сообщению

В этой теме нет новых непрочитанных сообщений. Жизненно важные точки тела для улучшения секса / Kyusho Sex Points For Sex Enhancement (Evan Pantazi) [2009 г., Обучающий, познавательный, сексуальные практики, акупунктура DVDRip, ENG]

в форуме Фитнес - Разум и Тело, Размер: 376.15 МБ, Здоровье: 100%

Anonymous

0
43|12

310
4

19 сен 2014, 23:48

Anonymous Перейти к последнему сообщению



Сейчас этот форум просматривают: нет зарегистрированных пользователей и гости: 1


Вы не можете начинать темы
Вы не можете отвечать на сообщения
Вы не можете редактировать свои сообщения
Вы не можете удалять свои сообщения
Вы не можете добавлять вложения

Перейти:  

!ВНИМАНИЕ!
 Ресурс не предоставляет электронные версии произведений, а занимается лишь коллекционированием и каталогизацией ссылок, присылаемых и публикуемых на форуме нашими читателями. Если вы являетесь правообладателем какого-либо представленного материала и не желаете чтобы ссылка на него находилась в нашем каталоге, свяжитесь с нами и мы незамедлительно удалим её. Файлы для обмена на трекере предоставлены пользователями сайта, и администрация не несёт ответственности за их содержание. Просьба не заливать файлы, защищенные авторскими правами, а также файлы нелегального содержания!