На всех торрентах на трекере установлена скидка на скачивание в размере 100 процентов(а).
 Возможность скачивания торрента НЕ зависит от ограничений при низком ратио, низком аплоаде, требуемом ратио или требуемом аплоаде.


Начать новую тему Ответить на тему
Статистика раздачи
Размер: 1.46 ГБ | Добавлен: 13 янв 2014, 13:04 | Скачали: 0
Сидеров: 0  [0 байт/сек]    Личеров: 0  [0 байт/сек]
Пред. тема | След. тема 

Автор
Сообщение

СообщениеДобавлено: 13 янв 2014, 13:04 

Чудаки 3.5 / Jackass 3.5

Год выпуска: 2011
Страна: США
Жанр: комедия, документальный
Продолжительность: 01:24:50
Перевод: Любительский (одноголосый закадровый)
Субтитры: нет

Режиссер: Джефф Треймейн

В ролях: Джонни Ноксвил, Бэм Марджера, Стив-О, Крис Понтиус, Райан Данн, Джейсон Акунья, Престон Лэси, Дэйв Инглэнд, Эрен МакГехи, Брэндон Дикамилло

Описание: Документальный фильм «Чудаки 3,5» — продолжение серии, начавшейся картиной «Чудаки», и рассказывающей об исполнении различных шутливых, порой очень опасных, самоистязающих, а порой просто глупых трюков, выполняемых командой энтузиастов. На этот раз — все вновь, как и прежде и гораздо больше. Еще более возмутительные трюки, еще больше шуток и погромов, включая достоверное столкновение одного из создателей картины Стива-О с каймановой черепахой и другого участника проекта Криса Понтиуса с его невероятным лесным дятлом. Кроме того, каждый зритель сможет попасть за кулисы шоу «Чудаки 3,5» и увидеть сумасшедшую жизнь создателей фильма.

Доп. информация: Jackass 3.5 (рус. Чудаки 3,5) — полуторачасовой документальный фильм, выпущенный 14 июня 2011 года. Фильм содержит в себе большое количество эпизодов, не попавших в итоговую версию фильма Jackass 3D, а так же интервью участников. В период с 1 апреля по 13 июня 2011 года, в режиме он-лайн, были показаны некоторые эпизоды, содержащиеся в фильме. Выпуск полнометражной версии на DVD и Blu-ray состоялся 14 июня.



Качество: HDRip - Исходник BDRip 1080p
Формат: AVI
Видео кодек: XviD
Аудио кодек: AC3
Видео: 704x400 (1.76:1), 23.976 fps, XviD build 73 ~2000 kbps avg, 0.30 bit/pixel
Аудио: 48 kHz, AC3 Dolby Digital, 3/2 (L,C,R,l,r) + LFE ch, ~448 kbps

Раздача от:


D:Мои рипыJackass.3.5.HDRip.dexter_lex.avi
General
Complete name : D:Мои рипыJackass.3.5.HDRip.dexter_lex.avi
Format : AVI
Format/Info : Audio Video Interleave
File size : 1.46 GiB
Duration : 1h 24mn
Overall bit rate : 2 458 Kbps
Writing application : VirtualDubMod 1.5.10.3 | http://www.virtualdub-fr.org || (build 2550/release)
Writing library : VirtualDubMod build 2550/release
Video #0
ID : 0
Format : MPEG-4 Visual
Format profile : Advanced Simple@L5
Format settings, BVOP : 1
Format settings, QPel : No
Format settings, GMC : No warppoints
Format settings, Matrix : Custom
Codec ID : XVID
Codec ID/Hint : XviD
Duration : 1h 24mn
Bit rate : 2 000 Kbps
Width : 704 pixels
Height : 400 pixels
Display aspect ratio : 16:9
Frame rate : 23.976 fps
Color space : YUV
Chroma subsampling : 4:2:0
Bit depth : 8 bits
Scan type : Progressive
Compression mode : Lossy
Bits/(Pixel*Frame) : 0.296
Stream size : 1.19 GiB (81%)
Writing library : XviD 73
Audio #1
ID : 1
Format : AC-3
Format/Info : Audio Coding 3
Mode extension : CM (complete main)
Codec ID : 2000
Duration : 1h 24mn
Bit rate mode : Constant
Bit rate : 448 Kbps
Channel(s) : 6 channels
Channel positions : Front: L C R, Side: L R, LFE
Sampling rate : 48.0 KHz
Bit depth : 16 bits
Compression mode : Lossy
Stream size : 272 MiB (18%)
Alignment : Split accross interleaves
Interleave, duration : 42 ms (1.00 video frame)
Interleave, preload duration : 500 ms
загрузка...
Правила, инструкции, FAQ!!!
Торрент  Добавлен [13 янв 2014, 13:04] Скачать торрент
Скачать торрент
[ Размер 15.04 КБ / Просмотров 7 ]

Статус  
 
Размер  1.46 ГБ
Приватный: Нет (DHT включён)
.torrent скачан  0
Как залить торрент? | Как скачать Torrent? | Как смотреть и слушать онлайн?  


     Отправить личное сообщение
   
Страница 1 из 1
Показать сообщения за:  Поле сортировки  
Начать новую тему Ответить на тему

   Похожие торренты   Автор   Ответы   Просмотры   Последнее сообщение 
В этой теме нет новых непрочитанных сообщений. Скачать торрент Проверен [MP4 960x540] Чудаки 3D / Jackass 3D (2010) HDTVRip

в форуме Видео для смартфонов и КПК, Размер: 1.07 ГБ, Здоровье: 100%

Anonymous

0
2|2

50
0

25 окт 2014, 23:20

Anonymous Перейти к последнему сообщению

В этой теме нет новых непрочитанных сообщений. Скачать торрент Несносный дед / Jackass Presents: Bad Grandpa (2013) HDRip | Baibako | Unrated Cut

в форуме Комедии, Размер: 1.46 ГБ, Здоровье: 100%

Anonymous

0
20|1

32
1

03 фев 2014, 18:49

Anonymous Перейти к последнему сообщению

В этой теме нет новых непрочитанных сообщений. Скачать торрент Несносный дед / Jackass Presents: Bad Grandpa (2013) WEB-DLRip | L1

в форуме Комедии, Размер: 1.37 ГБ, Здоровье: 0%

Anonymous

0
0|0

19
0

04 янв 2014, 20:07

Anonymous Перейти к последнему сообщению

В этой теме нет новых непрочитанных сообщений. Скачать торрент Проверен Несносная бабуля / Jackass Presents: Bad Grandpa .5 (2014) WEB-DLRip | iTunes

в форуме Комедии, Размер: 1.37 ГБ, Здоровье: 0%

Anonymous

0
0|0

40
0

11 авг 2014, 22:49

Anonymous Перейти к последнему сообщению

В этой теме нет новых непрочитанных сообщений. Скачать торрент Проверен Несносная бабуля / Jackass Presents: Bad Grandpa .5 (2014) WEB-DL 720p | iTunes

в форуме 720p | 1080p, Размер: 3.01 ГБ, Здоровье: 100%

Anonymous

0
216|35

30
7686

11 авг 2014, 22:52

Anonymous Перейти к последнему сообщению



Сейчас этот форум просматривают: нет зарегистрированных пользователей и гости: 1


Вы не можете начинать темы
Вы не можете отвечать на сообщения
Вы не можете редактировать свои сообщения
Вы не можете удалять свои сообщения
Вы не можете добавлять вложения

Перейти:  

!ВНИМАНИЕ!
 Ресурс не предоставляет электронные версии произведений, а занимается лишь коллекционированием и каталогизацией ссылок, присылаемых и публикуемых на форуме нашими читателями. Если вы являетесь правообладателем какого-либо представленного материала и не желаете чтобы ссылка на него находилась в нашем каталоге, свяжитесь с нами и мы незамедлительно удалим её. Файлы для обмена на трекере предоставлены пользователями сайта, и администрация не несёт ответственности за их содержание. Просьба не заливать файлы, защищенные авторскими правами, а также файлы нелегального содержания!