На всех торрентах на трекере установлена скидка на скачивание в размере 100 процентов(а).
 Возможность скачивания торрента НЕ зависит от ограничений при низком ратио, низком аплоаде, требуемом ратио или требуемом аплоаде.


Начать новую тему Ответить на тему
Статистика раздачи
Размер: 1.37 ГБ | Добавлен: 06 янв 2014, 20:40 | Скачали: 0
Сидеров: 0  [0 байт/сек]    Личеров: 0  [0 байт/сек]
Пред. тема | След. тема 

Автор
Сообщение

СообщениеДобавлено: 06 янв 2014, 20:40 

Упражнения в прекрасном (2011) DVDRip

Оригинальное название: Упражнения в прекрасном
Год выпуска: 2011
Производство: Парадиз (Россия)
Жанр: Комедия
Перевод: Оригинальный [Русский]

Дата мировой премьеры: 1 декабря 2011
Дата российской премьеры: 24 ноября 2011, «Парадиз»
Дата выхода DVD релиза: 15 декабря 2011, «Новый Диск»

Режиссер: Виктор Шамиров
Актеры: Виктор Шамиров, Гоша Куценко, Константин Юшкевич, Ксения Радченко, Павел Савинков

Описание фильма:
Пережив безумные юношеские надежды люди обычно соглашаются на роль участника массовки. Но некоторые всю жизнь чувствуют в себе силушку и предназначение свыше. И что-то делают, делают, делают. Создают. Или крадут-убивают, но уж в невероятных масштабах. В этой истории герои не крадут, и не убивают. Они едут, играют спектакль, едут, играют, летят, играют, пьют, ссорятся, едут, мирятся, пьют, любят, ненавидят, живут, живут, играют, живут…

Семпл

Продолжительность: 01:33:18
Качество видео: DVDRip

Видеокодек: XviD
Битрейт видео: ~1643 kbps, Бит/(Пиксели*Кадры): 0.238
Размер кадра: 720x384
Аудиокодек: AC3 5.1
Битрейт аудио: 448 kbps
Полное имя : D:\Uprazhnenija.v.prekrasnom.2011.DVDRip.avi
Формат : AVI
Формат/Информация : Audio Video Interleave
Размер файла : 1,37 Гбайт
Продолжительность : 1 ч. 33 м.
Общий поток : 2101 Кбит/сек
Программа кодирования : VirtualDubMod 1.5.10.2 (build 2540/release)

Видео
Идентификатор : 0
Формат : MPEG-4 Visual
Профиль формата : Advanced Simple@L5
Параметр BVOP формата : 2
Параметр QPel формата : Нет
Параметр GMC формата : Без точки перехода
Параметр матрицы формата : Выборочная
Идентификатор кодека : XVID
Идентификатор кодека/Подсказка : XviD
Продолжительность : 1 ч. 33 м.
Битрейт : 1643 Кбит/сек
Ширина : 720 пикс.
Высота : 384 пикс.
Соотношение сторон : 1,875
Частота кадров : 25,000 кадр/сек
Цветовое пространство : YUV
Подвыборка цветности : 4:2:0
Битовая глубина : 8 бит
Тип развёртки : Прогрессивная
Метод сжатия : С потерями
Бит/(Пиксели*Кадры) : 0.238
Размер потока : 1,07 Гбайт (78%)
Библиотека кодирования : XviD 1.2.0.dev47 (UTC 2006-11-01)

Аудио
Идентификатор : 1
Формат : AC-3
Формат/Информация : Audio Coding 3
Расширение режима : CM (complete main)
Идентификатор кодека : 2000
Продолжительность : 1 ч. 33 м.
Вид битрейта : Постоянный
Битрейт : 448 Кбит/сек
Каналы : 6 каналов
Расположение каналов : Front: L C R, Side: L R, LFE
Частота : 48,0 КГц
Битовая глубина : 16 бит
Метод сжатия : С потерями
Размер потока : 299 Мбайт (21%)
Выравнивание : Разделение по промежуткам
Продолжительность промежутка : 40 мс. (1,00 видеокадр)
Время предзагрузки промежутка : 500 ms
Скриншоты:


загрузка...
Правила, инструкции, FAQ!!!
Торрент  Добавлен [06 янв 2014, 20:40] Скачать торрент
Скачать торрент
[ Размер 14.41 КБ / Просмотров 4 ]

Статус  
 
Размер  1.37 ГБ
Приватный: Нет (DHT включён)
.torrent скачан  0
Как залить торрент? | Как скачать Torrent? | Как смотреть и слушать онлайн?  


     Отправить личное сообщение
   
Страница 1 из 1
Показать сообщения за:  Поле сортировки  
Начать новую тему Ответить на тему

   Похожие торренты   Автор   Ответы   Просмотры   Последнее сообщение 
В этой теме нет новых непрочитанных сообщений. Скачать торрент Проверен Галина Серикова | Я читаю чужие мысли. Техники, приемы, упражнения (2011) [PDF]

в форуме Эзотерика, гадания, магия, фен-шуй, Размер: 1.25 МБ, Здоровье: 100%

Anonymous

0
15|6

82
8

11 дек 2015, 00:03

Anonymous Перейти к последнему сообщению

В этой теме нет новых непрочитанных сообщений. Скачать торрент Проверен Упражнения для мускулатуры в картинках [JPG]

в форуме Физкультура, фитнес, бодибилдинг, Размер: 10.1 МБ, Здоровье: 0%

Anonymous

0
0|0

0
0

05 окт 2016, 00:17

Anonymous Перейти к последнему сообщению

В этой теме нет новых непрочитанных сообщений. Скачать торрент Проверен Шарабарова И.Н. - Упражнения со скакалкой [1991, DjVu, RUS]

в форуме Физкультура, фитнес, бодибилдинг, Размер: 1.38 МБ, Здоровье: 100%

Anonymous

0
1|0

5
1

05 окт 2016, 00:16

Anonymous Перейти к последнему сообщению

В этой теме нет новых непрочитанных сообщений. Скачать торрент Уроки и упражнения Guitar Pro. (gp5, gp4, gp3, gtp) (1299 шт.) [unpacked]

в форуме На досуге, Размер: 13.32 МБ, Здоровье: ???%

Anonymous

0
0|1

177
2

24 мар 2014, 22:46

Anonymous Перейти к последнему сообщению

В этой теме нет новых непрочитанных сообщений. Скачать торрент Журнал | Shape Упражнения №24 (2013-2014) [PDF]

в форуме Женские журналы, Размер: 87.28 МБ, Здоровье: 100%

Anonymous

0
20|5

90
5

09 мар 2014, 23:44

Anonymous Перейти к последнему сообщению



Сейчас этот форум просматривают: нет зарегистрированных пользователей и гости: 1


Вы не можете начинать темы
Вы не можете отвечать на сообщения
Вы не можете редактировать свои сообщения
Вы не можете удалять свои сообщения
Вы не можете добавлять вложения

Перейти:  

!ВНИМАНИЕ!
 Ресурс не предоставляет электронные версии произведений, а занимается лишь коллекционированием и каталогизацией ссылок, присылаемых и публикуемых на форуме нашими читателями. Если вы являетесь правообладателем какого-либо представленного материала и не желаете чтобы ссылка на него находилась в нашем каталоге, свяжитесь с нами и мы незамедлительно удалим её. Файлы для обмена на трекере предоставлены пользователями сайта, и администрация не несёт ответственности за их содержание. Просьба не заливать файлы, защищенные авторскими правами, а также файлы нелегального содержания!