На всех торрентах на трекере установлена скидка на скачивание в размере 100 процентов(а).
 Возможность скачивания торрента НЕ зависит от ограничений при низком ратио, низком аплоаде, требуемом ратио или требуемом аплоаде.


Начать новую тему Ответить на тему
Статистика раздачи
Размер: 1.46 ГБ | Добавлен: 25 дек 2013, 14:46 | Скачали: 4
Сидеров: 8  [0 байт/сек]    Личеров: 2  [0 байт/сек]
Пред. тема | След. тема 

Автор
Сообщение

СообщениеДобавлено: 25 дек 2013, 14:46 

Год выпуска: 2001
Страна: США, Австралия
Жанр: комедия
Продолжительность: 01:36:21
Перевод: Профессиональный (дублированный)
Cубтитры: нет

Режиссер: Деннис Дуган / Dennis Dugan

В ролях: Стив Зан, Джек Блэк, Джейсон Биггз, Аманда Пит, Аманда Детмер, Р. Ли Эрми, Нил Даймонд, Кайл Гэсс, Норман Армор, Колин Фу и др.

Описание: Друзья помогут. Даже когда их об этом не просят. Когда Джей Ди и Уэйн обнаруживают, что их закадычный друг Даррен Сильверман собрался совершить самую ужасную ошибку в своей жизни — пойти к алтарю со стервозной красоткой Джудит, они тут же замышляют заговор спасения своего незадачливого приятеля из лап злой и амбициозной девицы.

К несчастью, они сами не могут похвастаться умением все делать правильно и без осечек, поэтому не находят ничего лучшего, как сыграть в Джеймсов Бондов и похитить Джудит. А в ее отсутствие свести Даррена с его бывшей школьной любовью, милой и доброй Сэнди.

Безумный план. Но, может быть, именно сумасшедшие идеи и должны срабатывать в таких случаях? И вот, весьма рискованная операция «Спасти от невесты» начинается!..

Доп. информация: Звуковая дорожка оцифрована с видеокассеты.
Большое спасибо Dr.Manhattan за оцифровку звука. Исходник был скачан из-за бугорного трекера, в данный момент первый дубляж в более хорошем качестве.
Пришлось повозиться с растяжением звука и синхронизацией.



Качество видео: WEB-DLRip [Saving.Silverman.2001.720p.WEB-DL.PublicHD]
Формат видео: AVI
Видео кодек: XviD
Аудио кодек: AC3
Видео: 704x400 (1.76:1), 23.976 fps, XviD build 73 ~1962 kbps avg, 0.29 bit/pixel
Аудио: 48 kHz, AC3 Dolby Digital, 2/0 (L,R) ch, ~192 kbps

Раздача от:


D:Мои рипыSaving.Silverman.2001.WEB-DLRip.dexter_lex.avi
General
Complete name : D:Мои рипыSaving.Silverman.2001.WEB-DLRip.dexter_lex.avi
Format : AVI
Format/Info : Audio Video Interleave
File size : 1.46 GiB
Duration : 1h 36mn
Overall bit rate : 2 164 Kbps
Writing application : VirtualDubMod 1.5.10.3 | http://www.virtualdub-fr.org || (build 2550/release)
Writing library : VirtualDubMod build 2550/release
Video #0
ID : 0
Format : MPEG-4 Visual
Format profile : Advanced Simple@L5
Format settings, BVOP : 1
Format settings, QPel : No
Format settings, GMC : No warppoints
Format settings, Matrix : Custom
Codec ID : XVID
Codec ID/Hint : XviD
Duration : 1h 36mn
Bit rate : 1 963 Kbps
Width : 704 pixels
Height : 400 pixels
Display aspect ratio : 16:9
Frame rate : 23.976 fps
Color space : YUV
Chroma subsampling : 4:2:0
Bit depth : 8 bits
Scan type : Progressive
Compression mode : Lossy
Bits/(Pixel*Frame) : 0.291
Stream size : 1.32 GiB (91%)
Writing library : XviD 73
Audio #1
ID : 1
Format : AC-3
Format/Info : Audio Coding 3
Mode extension : CM (complete main)
Codec ID : 2000
Duration : 1h 36mn
Bit rate mode : Constant
Bit rate : 192 Kbps
Channel(s) : 2 channels
Channel positions : Front: L R
Sampling rate : 48.0 KHz
Bit depth : 16 bits
Compression mode : Lossy
Stream size : 132 MiB (9%)
Alignment : Split accross interleaves
Interleave, duration : 42 ms (1.00 video frame)
Interleave, preload duration : 500 ms


загрузка...
Правила, инструкции, FAQ!!!
Торрент  Добавлен [25 дек 2013, 14:46] Скачать торрент
Скачать торрент
[ Размер 15.06 КБ / Просмотров 41 ]

Статус  
 
Размер  1.46 ГБ
Приватный: Нет (DHT включён)
.torrent скачан  4
Как залить торрент? | Как скачать Torrent? | Как смотреть и слушать онлайн?  


     Отправить личное сообщение
   
Страница 1 из 1
Показать сообщения за:  Поле сортировки  
Начать новую тему Ответить на тему

   Похожие торренты   Автор   Ответы   Просмотры   Последнее сообщение 
В этой теме нет новых непрочитанных сообщений. Скачать торрент Спасти мистера Бэнкса / Saving Mr. Banks (2013) HDRip

в форуме Драмы, Мелодрамы, Размер: 746.41 МБ, Здоровье: 0%

Anonymous

0
0|0

80
0

06 мар 2014, 14:23

Anonymous Перейти к последнему сообщению

В этой теме нет новых непрочитанных сообщений. Скачать торрент Спасти мистера Бэнкса / Saving Mr. Banks (2013) HDRip

в форуме Драмы, Мелодрамы, Размер: 1.45 ГБ, Здоровье: 0%

Anonymous

0
0|0

61
0

06 мар 2014, 12:51

Anonymous Перейти к последнему сообщению

В этой теме нет новых непрочитанных сообщений. Скачать торрент Спасти Санту / Saving Santa (2013) HDRip | Лицензия

в форуме Зарубежные мультфильмы, Размер: 1.37 ГБ, Здоровье: 0%

Anonymous

0
0|0

103
0

14 дек 2013, 09:06

Anonymous Перейти к последнему сообщению

В этой теме нет новых непрочитанных сообщений. Спасти мистера Бэнкса / Saving Mr. Banks (2013) DVDScr | Звук с TS

в форуме Новинки кино, Размер: 1.36 ГБ, Здоровье: 0%

Anonymous

0
0|0

153
1

24 янв 2014, 07:58

Anonymous Перейти к последнему сообщению

В этой теме нет новых непрочитанных сообщений. Скачать торрент Проверен Спасти мистера Бэнкса / Saving Mr. Banks (2013) BDRip [576p] iPad

в форуме Фильмы для iPod, iPhone, iPad, Размер: 2.21 ГБ, Здоровье: 100%

Гость

0
20|2

88
2

13 сен 2015, 01:25

Гость Перейти к последнему сообщению



Сейчас этот форум просматривают: нет зарегистрированных пользователей и гости: 1


Вы не можете начинать темы
Вы не можете отвечать на сообщения
Вы не можете редактировать свои сообщения
Вы не можете удалять свои сообщения
Вы не можете добавлять вложения

Перейти:  

!ВНИМАНИЕ!
 Ресурс не предоставляет электронные версии произведений, а занимается лишь коллекционированием и каталогизацией ссылок, присылаемых и публикуемых на форуме нашими читателями. Если вы являетесь правообладателем какого-либо представленного материала и не желаете чтобы ссылка на него находилась в нашем каталоге, свяжитесь с нами и мы незамедлительно удалим её. Файлы для обмена на трекере предоставлены пользователями сайта, и администрация не несёт ответственности за их содержание. Просьба не заливать файлы, защищенные авторскими правами, а также файлы нелегального содержания!