На всех торрентах на трекере установлена скидка на скачивание в размере 100 процентов(а).
 Возможность скачивания торрента НЕ зависит от ограничений при низком ратио, низком аплоаде, требуемом ратио или требуемом аплоаде.


Начать новую тему Ответить на тему
Статистика раздачи
Размер: 1.45 ГБ | Добавлен: 03 ноя 2013, 23:55 | Скачали: 0
Сидеров: 0  [0 байт/сек]    Личеров: 0  [0 байт/сек]
Пред. тема | След. тема 

Автор
Сообщение

СообщениеДобавлено: 03 ноя 2013, 23:55 

Синбад и Глаз Тигра / Sinbad and the Eye of the Tiger (1977) DVDRip

Год выпуска: 1977
Жанр: Семейный, Фэнтези, Приключения

Описание фильма:
Синбад держит путь в землю Чарок для того, чтобы просить руки принцессы Фары у её брата принца Кассима. Однако, приплыв туда, он узнаёт, что волшебница Зенобия наложила на Кассима проклятие, превратив его в бабуина.
Королева Зенобия сделала это, для того, чтобы калифом смог стать её сын принц Рафи. Синбад решает восстановить справедливость и вступает в схватку с волшебницей, то и дело принимающей облик дикой тигрицы.

Режиссер: Сэм Уонамейкер
Актеры: Патрик Вейн, Джейн Сеймур, Тэрин Пауэр, Маргарет Уайтинг, Патрик Тротон, Курт Кристиан, Дэмиен Томас, Бернард Кэй.

Продолжительность: 01:52:59
Качество видео: DVDRip
Перевод: Многоголосый закадровый



Дата мировой премьеры: 15.07.77

Видеокодек: Xvid
Битрейт видео: ~1641 Кбит/сек
Размер кадра: 720x400
Аудиокодек: AC3 2.0
Битрейт аудио: 192 Кбит/сек
Общее
Полное имя : E:\Интересно\!Детские\Синбад и Глаз Тигра 1977\Синбад и Глаз Тигра (1977) DVDRip.avi
Формат : AVI
Формат/Информация : Audio Video Interleave
Размер файла : 1,45 Гбайт
Продолжительность : 1 ч. 52 м.
Общий поток : 1842 Кбит/сек
Название фильма : Синбад и Глаз Тигра / Sinbad and the Eye of the Tiger (1977) DVDRip
Режиссёр : Flynn82
Жанр : фэнтези, боевик, приключения
Программа кодирования : VirtualDubMod 1.5.10.2 (build 2542/release)
Примечание : 06.12.2012

Видео
Идентификатор : 0
Формат : MPEG-4 Visual
Профиль формата : Advanced Simple@L5
Параметр BVOP формата : 1
Параметр QPel формата : Нет
Параметр GMC формата : Без точки перехода
Параметр матрицы формата : Выборочная
Идентификатор кодека : XVID
Идентификатор кодека/Подсказка : XviD
Продолжительность : 1 ч. 52 м.
Битрейт : 1641 Кбит/сек
Ширина : 720 пикселей
Высота : 400 пикселей
Соотношение сторон : 16:9
Частота кадров : 23,976 кадра/сек
Цветовое пространство : YUV
Субдискретизация насыщенности : 4:2:0
Битовая глубина : 8 бит
Тип развёртки : Прогрессивная
Метод сжатия : С потерями
Бит/(Пиксели*Кадры) : 0.238
Размер потока : 1,29 Гбайт (89%)
Библиотека кодирования : XviD 65

Аудио
Идентификатор : 1
Формат : AC-3
Формат/Информация : Audio Coding 3
Расширение режима : CM (complete main)
Параметр Endianness формата : Big
Идентификатор кодека : 2000
Продолжительность : 1 ч. 52 м.
Вид битрейта : Постоянный
Битрейт : 192 Кбит/сек
Каналы : 2 канала
Расположение каналов : Front: L R
Частота : 48,0 КГц
Битовая глубина : 16 бит
Метод сжатия : С потерями
Размер потока : 155 Мбайт (10%)
Выравнивание : Разделение по промежуткам
Продолжительность промежутка : 42 мс. (1,00 видеокадр)
Время предзагрузки промежутка : 500 мс.
Скриншоты:


загрузка...
Правила, инструкции, FAQ!!!
Торрент  Добавлен [03 ноя 2013, 23:55] Скачать торрент
Скачать торрент
[ Размер 15.39 КБ / Просмотров 10 ]

Статус  
 
Размер  1.45 ГБ
Приватный: Нет (DHT включён)
.torrent скачан  0
Как залить торрент? | Как скачать Torrent? | Как смотреть и слушать онлайн?  


     Отправить личное сообщение
   
Страница 1 из 1
Показать сообщения за:  Поле сортировки  
Начать новую тему Ответить на тему

   Похожие торренты   Автор   Ответы   Просмотры   Последнее сообщение 
В этой теме нет новых непрочитанных сообщений. Скачать торрент Проверен Синбад и Глаз Тигра / Sinbad and the Eye of the Tiger (1977) BDRip [720p]

в форуме Детское, Семейное кино, Размер: 4.73 ГБ, Здоровье: 0%

Anonymous

0
0|0

38
0

09 авг 2014, 21:27

Anonymous Перейти к последнему сообщению

В этой теме нет новых непрочитанных сообщений. Скачать торрент Проверен (Heavy Blues Rock / Glam Power) Tiger B.Smith - We're The Tiger Bunch - 1974, FLAC (image+.cue) lossless

в форуме Classic Rock & Hard Rock, Размер: 216.14 МБ, Здоровье: 0%

Anonymous

0
0|0

0
0

05 сен 2016, 20:49

Anonymous Перейти к последнему сообщению

В этой теме нет новых непрочитанных сообщений. Скачать торрент Проверен (Hard rock) Tiger B. Smith - Tiger Rock (1972) - 1997, FLAC (image+.cue), lossless

в форуме Classic Rock & Hard Rock, Размер: 295.25 МБ, Здоровье: 0%

Anonymous

0
0|0

0
0

05 сен 2016, 20:49

Anonymous Перейти к последнему сообщению

В этой теме нет новых непрочитанных сообщений. Скачать торрент Проверен (Heavy Metal) Saber Tiger - Saber Tiger - 2001, FLAC (image+.cue), lossless

в форуме Heavy, Power, Progressive (Metal), Размер: 475.92 МБ, Здоровье: 0%

Anonymous

0
0|0

7
0

11 окт 2016, 00:53

Anonymous Перейти к последнему сообщению

В этой теме нет новых непрочитанных сообщений. Скачать торрент Проверен (Progressive Rock, Hard Rock) Tiger - Tiger - 1976, FLAC (tracks+.cue), lossless

в форуме Progressive & Art-Rock, Размер: 257.49 МБ, Здоровье: 100%

Anonymous

0
3|1

4
0

02 сен 2016, 13:01

Anonymous Перейти к последнему сообщению



Сейчас этот форум просматривают: нет зарегистрированных пользователей и гости: 1


Вы не можете начинать темы
Вы не можете отвечать на сообщения
Вы не можете редактировать свои сообщения
Вы не можете удалять свои сообщения
Вы не можете добавлять вложения

Перейти:  

!ВНИМАНИЕ!
 Ресурс не предоставляет электронные версии произведений, а занимается лишь коллекционированием и каталогизацией ссылок, присылаемых и публикуемых на форуме нашими читателями. Если вы являетесь правообладателем какого-либо представленного материала и не желаете чтобы ссылка на него находилась в нашем каталоге, свяжитесь с нами и мы незамедлительно удалим её. Файлы для обмена на трекере предоставлены пользователями сайта, и администрация не несёт ответственности за их содержание. Просьба не заливать файлы, защищенные авторскими правами, а также файлы нелегального содержания!