На всех торрентах на трекере установлена скидка на скачивание в размере 100 процентов(а).
 Возможность скачивания торрента НЕ зависит от ограничений при низком ратио, низком аплоаде, требуемом ратио или требуемом аплоаде.


Начать новую тему Ответить на тему
Статистика раздачи
Размер: 1.46 ГБ | Добавлен: 25 янв 2015, 10:37 | Скачали: 0
Сидеров: 56  [0 байт/сек]    Личеров: 19  [0 байт/сек]
Пред. тема | След. тема 

Автор
Сообщение

СообщениеДобавлено: 25 янв 2015, 10:37 

Страна: США
Студии: Twentieth Century Fox Film Corporation, LBI Entertainment, Vinyl Films
Жанр: драма, комедия, семейный
Год выпуска: 2011
Продолжительность: 02:03:54
Перевод: Профессиональный (дублированный) лицензия
Cубтитры: нет
Режиссер: Кэмерон Кроу / Cameron Crowe
В ролях: Мэтт Дэймон (Benjamin Mee), Скарлетт Йоханссон (Kelly Foster), Томас Хейден Чёрч (Duncan Mee), Колин Форд (Dylan Mee), Мэгги Джонс (Rosie Mee), Энгус МакФадьен (Peter MacCready), Эль Фаннинг (Lily Miska), Патрик Фьюджит (Robin Jones), Джон Майкл Хиггинс (Walter Ferris), Карла Галло (Rhonda Blair).
Описание
:
Лента рассказывает о том, как британское семейство Ми потратило все сбережения, чтобы спасти заброшенный сельский зверинец с двумя сотнями экзотических животных, которым грозила гибель...
Сэмпл: http://multi-up.com/801109
Качество видео: BDRip (Исх.: Blu-ray disc CEE 1080p)
Формат видео: AVI

Видео: XviD build 65, 704x384 (16:9), 23.976 fps, 1491 kbps avg, 0.23 bit/pixel
Аудио: 48 kHz, AC3 Dolby Digital, 2/0 (L,R) ch, 192 kbps avg (Rus Dub)
Общее
Полное имя : D:\We.Bought.a.Zoo.2011.DUB.XviD.AC3.BDRip._by.ZNG505_.avi
Формат : AVI
Формат/Информация : Audio Video Interleave
Размер файла : 1,46 Гбайт
Продолжительность : 2 ч. 3 м.
Общий поток : 1692 Кбит/сек
Программа кодирования : VirtualDubModRus 1.5.10.2 (build 2542/release)
Библиотека кодирования : VirtualDubMod build 2542/release

Видео
Идентификатор : 0
Формат : MPEG-4 Visual
Профиль формата : Advanced Simple@L5
Параметр BVOP формата : 1
Параметр QPel формата : Нет
Параметр GMC формата : Без точки перехода
Параметр матрицы формата : Выборочная
Идентификатор кодека : XVID
Идентификатор кодека/Подсказка : XviD
Продолжительность : 2 ч. 3 м.
Битрейт : 1491 Кбит/сек
Ширина : 704 пикселя
Высота : 384 пикселя
Соотношение сторон : 16:9
Частота кадров : 23,976 кадра/сек
Цветовое пространство : YUV
Субдискретизация насыщенности : 4:2:0
Битовая глубина : 8 бит
Тип развёртки : Прогрессивная
Метод сжатия : С потерями
Бит/(Пиксели*Кадры) : 0.230
Размер потока : 1,29 Гбайт (88%)
Библиотека кодирования : XviD 65

Аудио
Идентификатор : 1
Формат : AC-3
Формат/Информация : Audio Coding 3
Расширение режима : CM (complete main)
Идентификатор кодека : 2000
Продолжительность : 2 ч. 3 м.
Вид битрейта : Постоянный
Битрейт : 192 Кбит/сек
Каналы : 2 канала
Расположение каналов : Front: L R
Частота : 48,0 КГц
Битовая глубина : 16 бит
Метод сжатия : С потерями
Размер потока : 170 Мбайт (11%)
Выравнивание : Разделение по промежуткам
Продолжительность промежутка : 42 мс. (1,00 видеокадр)
Время предзагрузки промежутка : 500 мс.

загрузка...
Правила, инструкции, FAQ!!!
Торрент  Добавлен [25 янв 2015, 10:37] Скачать торрент
Скачать торрент
[ Размер 15.15 КБ / Просмотров 7 ]

Статус
Проверен 
 
Размер  1.46 ГБ
Приватный: Нет (DHT включён)
.torrent скачан  0
Как залить торрент? | Как скачать Torrent? | Как смотреть и слушать онлайн?  


     Отправить личное сообщение
   
Страница 1 из 1
Показать сообщения за:  Поле сортировки  
Начать новую тему Ответить на тему

   Похожие торренты   Автор   Ответы   Просмотры   Последнее сообщение 
В этой теме нет новых непрочитанных сообщений. Скачать торрент Проверен Джерри Магуайер / Jerry Maguire (Кэмерон Кроу / Cameron Crowe) [1996, драма, мелодрама, комедия, BDRip, 480p] DUB, Original + sub (rus, eng)

в форуме Фильмы для iPod, iPhone, iPad, Размер: 1.91 ГБ, Здоровье: 100%

Гость

0
21|7

65
0

11 май 2015, 01:41

Гость Перейти к последнему сообщению

В этой теме нет новых непрочитанных сообщений. Скачать торрент Ванильное небо / Vanilla Sky (Кэмерон Кроу / Cameron Crowe) [2001 г., мелодрама, фантастика, HDTV 1080i]

в форуме 720p | 1080p, Размер: 5.88 ГБ, Здоровье: 0%

Anonymous

0
0|0

57
0

25 фев 2014, 22:42

Anonymous Перейти к последнему сообщению

В этой теме нет новых непрочитанных сообщений. Скачать торрент Аватар / Avatar (Джеймс Кэмерон / James Cameron) [2009 г., фантастика, боевик, драма, приключения, BDRip-AVC] [Extended Collector's Cut]

в форуме 720p | 1080p, Размер: 4.93 ГБ, Здоровье: 100%

Anonymous

0
56|19

61
0

07 фев 2014, 11:42

Anonymous Перейти к последнему сообщению

В этой теме нет новых непрочитанных сообщений. Скачать торрент Аватар / Avatar (Джеймс Кэмерон / James Cameron) [2009, Фантастика, боевик, драма, приключения, HDRip] [Театральная версия / Theatrical Cut]

в форуме Фантастика, Фэнтези, Размер: 1.46 ГБ, Здоровье: 100%

Anonymous

0
11|4

71
0

17 фев 2014, 08:03

Anonymous Перейти к последнему сообщению

В этой теме нет новых непрочитанных сообщений. Скачать торрент Аватар / Avatar (Джеймс Кэмерон / James Cameron) [2009 г., фантастика, BDRip-AVC] [Расширенная версия / Extended Cut] Dub

в форуме Фантастика, Фэнтези, Размер: 2.91 ГБ, Здоровье: 100%

Anonymous

0
168|11

89
3

01 апр 2014, 09:36

Anonymous Перейти к последнему сообщению



Сейчас этот форум просматривают: нет зарегистрированных пользователей и гости: 1


Вы не можете начинать темы
Вы не можете отвечать на сообщения
Вы не можете редактировать свои сообщения
Вы не можете удалять свои сообщения
Вы не можете добавлять вложения

Перейти:  

!ВНИМАНИЕ!
 Ресурс не предоставляет электронные версии произведений, а занимается лишь коллекционированием и каталогизацией ссылок, присылаемых и публикуемых на форуме нашими читателями. Если вы являетесь правообладателем какого-либо представленного материала и не желаете чтобы ссылка на него находилась в нашем каталоге, свяжитесь с нами и мы незамедлительно удалим её. Файлы для обмена на трекере предоставлены пользователями сайта, и администрация не несёт ответственности за их содержание. Просьба не заливать файлы, защищенные авторскими правами, а также файлы нелегального содержания!