На всех торрентах на трекере установлена скидка на скачивание в размере 100 процентов(а).
 Возможность скачивания торрента НЕ зависит от ограничений при низком ратио, низком аплоаде, требуемом ратио или требуемом аплоаде.


Начать новую тему Ответить на тему
Статистика раздачи
Размер: 17.29 ГБ | Добавлен: 09 авг 2014, 21:31 | Скачали: 0
Сидеров: 3  [0 байт/сек]    Личеров: 1  [0 байт/сек]
Пред. тема | След. тема 

Автор
Сообщение

СообщениеДобавлено: 09 авг 2014, 21:31 

Год выпуска: 1978
Страны: Чехословакия
Жанры: фантастика, фэнтези, комедия, приключения, семейный
Продолжительность: 13 серий по ~00:28:39
Перевод: Профессиональный (многоголосый закадровый)

Режиссер: Радим Цврчек
Сценарий: Вацлав Боровичка
Оператор: Карел Копэцки
Композитор : Гарри Мацуорек
Художник: Зденек Розкопал

В ролях: Зузана Правняньска / Zuzana Pravnanska (Майка), Матей Ландл / Matej Landl (Карол), Светлана Майбова / Svetlana Majbova (Катка), Любор Чайка / Lubor Cajka (Славо), Мария Хайкова / Maria Hajkova (Бабушка), Франтишек Цварик / Frantisek Zvarik (Валко), Петер Шольц / Peter Scholtz (Эмиль), Повол Ларцар / Pavol Larzar (Ферко)


Описание: История о необычной инопланетной девочке Майке с планеты Гурун, попавшей к нам на Землю в небольшой словацкий городок Чабовец, где она знакомится с местными ребятами и с которыми переживает захватывающие приключения.
Премьера (мир): 3 мая 1981





Субтитры: нет

Качество: DVD
Видео кодек: MPEG-2
Видео: 720x576
Аудио #1: AC3, 192 Kbps, 48.0 KHz, 2 ch русский
Аудио #2: AC3, 256 Kbps, 48.0 KHz, 2 ch словацкий
Код:
Код:
General
Complete name                            :PRIKLUCHENIYA 1\VIDEO_TS\VTS_02_1.VOB
Format                                   : MPEG-PS
File size                                : 1 024 MiB
Duration                                 : 23mn 33s
Overall bit rate mode                    : Variable
Overall bit rate                         : 6 076 Kbps

Video
ID                                       : 224 (0xE0)
Format                                   : MPEG Video
Format version                           : Version 2
Format profile                           : Main@Main
Format settings, BVOP                    : Yes
Format settings, Matrix                  : Custom
Duration                                 : 23mn 33s
Bit rate mode                            : Variable
Bit rate                                 : 5 507 Kbps
Maximum bit rate                         : 9 800 Kbps
Width                                    : 720 pixels
Height                                   : 576 pixels
Display aspect ratio                     : 4:3
Frame rate                               : 25.000 fps
Standard                                 : PAL
Color space                              : YUV
Chroma subsampling                       : 4:2:0
Bit depth                                : 8 bits
Scan type                                : Interlaced
Scan order                               : Top Field First
Compression mode                         : Lossy
Bits/(Pixel*Frame)                       : 0.531
Stream size                              : 928 MiB (91%)

Audio #1
ID                                       : 189 (0xBD)-128 (0x80)
Format                                   : AC-3
Format/Info                              : Audio Coding 3
Mode extension                           : CM (complete main)
Format settings, Endianness              : Big
Muxing mode                              : DVD-Video
Duration                                 : 23mn 33s
Bit rate mode                            : Constant
Bit rate                                 : 192 Kbps
Channel(s)                               : 2 channels
Channel positions                        : Front: L R
Sampling rate                            : 48.0 KHz
Bit depth                                : 16 bits
Compression mode                         : Lossy
Stream size                              : 32.4 MiB (3%)

Audio #2
ID                                       : 189 (0xBD)-129 (0x81)
Format                                   : AC-3
Format/Info                              : Audio Coding 3
Mode extension                           : CM (complete main)
Format settings, Endianness              : Big
Muxing mode                              : DVD-Video
Duration                                 : 23mn 33s
Bit rate mode                            : Constant
Bit rate                                 : 256 Kbps
Channel(s)                               : 2 channels
Channel positions                        : Front: L R
Sampling rate                            : 48.0 KHz
Bit depth                                : 16 bits
Compression mode                         : Lossy
Stream size                              : 43.1 MiB (4%)

Menu

Title: PRIKLUCHENIYA 1
Size: 3.95 Gb ( 4 147 094,00 KBytes ) - DVD-5
Enabled regions: 1, 2, 3, 4, 5, 6, 7, 8

VTS_01 :
Play Length: 00:00:16
Video: PAL 4:3 (720x576) VBR
Audio:
English (Dolby AC3, 2 ch)

VTS_02 :
Play Length: 01:19:45
Video: PAL 4:3 (720x576) VBR
Audio:
Russian (Dolby AC3, 2 ch)
Slovak (Dolby AC3, 2 ch)

VTS_03 :
Play Length: 00:01:14
Video: PAL 4:3 (720x576) VBR
Audio:
Slovak (Dolby AC3, 2 ch)
Slovak (Dolby AC3, 2 ch)

VTS_04 :
Play Length: 00:01:00
Video: PAL 4:3 (720x576) VBR
Audio:
Slovak (Dolby AC3, 2 ch)
Slovak (Dolby AC3, 2 ch)

VTS_05 :
Play Length: 00:00:54
Video: PAL 4:3 (720x576) VBR
Audio:
Slovak (Dolby AC3, 2 ch)
Slovak (Dolby AC3, 2 ch)

VTS_06 :
Play Length: 00:01:01
Video: PAL 4:3 (720x576) VBR
Audio:
Slovak (Dolby AC3, 2 ch)
Slovak (Dolby AC3, 2 ch)

VTS_07 :
Play Length: 00:00:56
Video: PAL 4:3 (720x576) VBR
Audio:
Slovak (Dolby AC3, 2 ch)
Slovak (Dolby AC3, 2 ch)

VTS_08 :
Play Length: 00:01:19
Video: PAL 4:3 (720x576) VBR
Audio:
Slovak (Dolby AC3, 2 ch)
Slovak (Dolby AC3, 2 ch)

VTS_09 :
Play Length: 00:01:20
Video: PAL 4:3 (720x576) VBR
Audio:
Slovak (Dolby AC3, 2 ch)
Slovak (Dolby AC3, 2 ch)

VTS_10 :
Play Length: 00:01:28
Video: PAL 4:3 (720x576) VBR
Audio:
Slovak (Dolby AC3, 2 ch)
Slovak (Dolby AC3, 2 ch)

VTS_11 :
Play Length: 00:01:15
Video: PAL 4:3 (720x576) VBR
Audio:
Slovak (Dolby AC3, 2 ch)
Slovak (Dolby AC3, 2 ch)

VTS_12 :
Play Length: 00:01:19
Video: PAL 4:3 (720x576) VBR
Audio:
Slovak (Dolby AC3, 2 ch)
Slovak (Dolby AC3, 2 ch)

VTS_13 :
Play Length: 00:00:46
Video: PAL 4:3 (720x576) VBR
Audio:
Slovak (Dolby AC3, 2 ch)
Slovak (Dolby AC3, 2 ch)

VTS_14 :
Play Length: 00:00:53
Video: PAL 4:3 (720x576) VBR
Audio:
Slovak (Dolby AC3, 2 ch)
Slovak (Dolby AC3, 2 ch)

VTS_15 :
Play Length: 00:01:04
Video: PAL 4:3 (720x576) VBR
Audio:
Slovak (Dolby AC3, 2 ch)
Slovak (Dolby AC3, 2 ch)
Бонусы: Анонс ДВД, реставрация
Фильм снят по мотивам книги Вацлава Боровички «Упавшая с небес».
1 01.Явление
2 02.Летательный аппарат
3 03.Свадебное платье
4 04.Налёт
5 05.Банкет
6 06.Папа всё уладит
7 07.Секретарь
8 08.Таинственный иностранец
9 09.Операция Одуванчик
10 10.Прогулка на ракете
11 11.Похищение
12 12.В тире
13 13.Прощание
Скриншоты:

загрузка...
Правила, инструкции, FAQ!!!
Торрент  Добавлен [09 авг 2014, 21:31] Скачать торрент
Скачать торрент
[ Размер 65.79 КБ / Просмотров 13 ]

Статус
Проверен 
 
Размер  17.29 ГБ
Приватный: Нет (DHT включён)
.torrent скачан  0
Как залить торрент? | Как скачать Torrent? | Как смотреть и слушать онлайн?  


     Отправить личное сообщение
   
Страница 1 из 1
Показать сообщения за:  Поле сортировки  
Начать новую тему Ответить на тему

   Похожие торренты   Автор   Ответы   Просмотры   Последнее сообщение 
В этой теме нет новых непрочитанных сообщений. Скачать торрент Проверен Приключения в каникулы / Spadla z oblakov (1978) DVDRip [H.264] (13 из 13 серий)

в форуме Детское, Семейное кино, Размер: 6.49 ГБ, Здоровье: 0%

Anonymous

0
0|0

61
0

09 авг 2014, 21:28

Anonymous Перейти к последнему сообщению

В этой теме нет новых непрочитанных сообщений. Скачать торрент Проверен Удивительные приключения Хомы (2005-2012) WEBRip (13 серий из 13)

в форуме Отечественные мультфильмы, Размер: 2.52 ГБ, Здоровье: 0%

Anonymous

0
0|0

199
1

06 янв 2015, 20:54

Anonymous Перейти к последнему сообщению

В этой теме нет новых непрочитанных сообщений. Скачать торрент Проверен Жил-был Человек / Il Etait Une Fois... l'homme (1978) DVDRip (26 серий из 26)

в форуме Развивающее Видео для детей, Размер: 4.4 ГБ, Здоровье: 100%

Anonymous

0
11|4

53
1

01 дек 2015, 00:09

Anonymous Перейти к последнему сообщению

В этой теме нет новых непрочитанных сообщений. Скачать торрент Проверен Новые приключения Лесси / The New Lassie (48 серий из 48) (1989-1992) TVRip

в форуме Детское, Семейное кино, Размер: 8.11 ГБ, Здоровье: 100%

Anonymous

0
2|1

286
0

09 авг 2014, 21:30

Anonymous Перейти к последнему сообщению

В этой теме нет новых непрочитанных сообщений. Скачать торрент Проверен [VIDEO4PDA] Адъютант его превосходительства (5 серий) (Евгений Ташков) [1969 г., Приключения, DVDRip]

в форуме Видео для смартфонов и КПК, Размер: 775.14 МБ, Здоровье: 0%

Anonymous

0
0|0

55
0

02 авг 2014, 17:03

Anonymous Перейти к последнему сообщению



Сейчас этот форум просматривают: нет зарегистрированных пользователей и гости: 1


Вы не можете начинать темы
Вы не можете отвечать на сообщения
Вы не можете редактировать свои сообщения
Вы не можете удалять свои сообщения
Вы не можете добавлять вложения

Перейти:  

!ВНИМАНИЕ!
 Ресурс не предоставляет электронные версии произведений, а занимается лишь коллекционированием и каталогизацией ссылок, присылаемых и публикуемых на форуме нашими читателями. Если вы являетесь правообладателем какого-либо представленного материала и не желаете чтобы ссылка на него находилась в нашем каталоге, свяжитесь с нами и мы незамедлительно удалим её. Файлы для обмена на трекере предоставлены пользователями сайта, и администрация не несёт ответственности за их содержание. Просьба не заливать файлы, защищенные авторскими правами, а также файлы нелегального содержания!