На всех торрентах на трекере установлена скидка на скачивание в размере 100 процентов(а).
 Возможность скачивания торрента НЕ зависит от ограничений при низком ратио, низком аплоаде, требуемом ратио или требуемом аплоаде.


Начать новую тему Ответить на тему
Статистика раздачи
Размер: 4.1 ГБ | Добавлен: 09 авг 2014, 21:30 | Скачали: 1
Сидеров: 10  [0 байт/сек]    Личеров: 4  [0 байт/сек]
Пред. тема | След. тема 

Автор
Сообщение

СообщениеДобавлено: 09 авг 2014, 21:30 

Страна: США, Франция
Оригинальное название: Free Willy
Русское название: Освободите Вилли
Год выпуска: 1993
Жанр: драма, приключения, семейный

Описание фильма:
Чтобы получить страховку за якобы случайно погибшего кита, владельцы океанариума решают убить трехтонную касатку по прозвищу Вилли. Но их безупречному плану не суждено сбыться, ведь на защиту морского гиганта встает 12-ти летний сорванец Джесси, который успел подружиться с Вилли, и делает все, чтобы спасти своего чрезвычайно умного морского друга, выпустив его на волю в открытый океан.

Режиссер: Саймон Уинсер
Актеры: Кейко, Джейсон Джеймс Рихтер, Лори Петти, Джэйн Эткинсон, Аугуст Шелленберг, Майкл Мэдсен, Майкл Айронсайд, Ричард Рихль, Майкелти Уильямсон, Майкл Бэколл



Продолжительность: 01:47:06
Перевод: Профессиональный (многоголосый, закадровый)
Субтитры: нет

Качество видео: DVDRip
Формат: AVI
Видео: 720x288 (2.50:1), 25 fps, DivX Codec 5.x or 6.x ~1433 kbps avg, 0.28 bit/pixel
Аудио: 48 kHz, AC3 Dolby Digital, 3/2 (L,C,R,l,r) + LFE ch, ~384.00 kbps avg
Код:
Код:
Общее
Полное имя                       : C:\Users\Admin\Downloads\Освободите Вилли - Трилогия DVDRip\Освободите Вилли 1.avi
Формат                           : AVI
Формат/Информация                : Audio Video Interleave
Размер файла                     : 1,37 Гбайт
Продолжительность                : 1 ч. 47 м.
Общий поток                      : 1827 Кбит/сек
Программа кодирования            : VirtualDubMod 1.5.10.1 (build 2366/release)
Библиотека кодирования           : VirtualDubMod build 2366/release

Видео
Идентификатор                    : 0
Формат                           : MPEG-4 Visual
Параметр BVOP формата            : 1
Параметр QPel формата            : Нет
Параметр GMC формата             : Без точки перехода
Параметр матрицы формата         : Default (H.263)
Режим смешивания                 : Сжатый битовый поток
Идентификатор кодека             : DX50
Идентификатор кодека/Подсказка   : DivX 5
Продолжительность                : 1 ч. 47 м.
Битрейт                          : 1434 Кбит/сек
Ширина                           : 720 пикс.
Высота                           : 288 пикс.
Соотношение сторон               : 2,500
Частота кадров                   : 25,000 кадр/сек
Цветовое пространство            : YUV
Подвыборка цветности             : 4:2:0
Битовая глубина                  : 8 бит
Тип развёртки                    : Прогрессивная
Метод сжатия                     : С потерями
Бит/(Пиксели*Кадры)              : 0.277
Размер потока                    : 1,07 Гбайт (78%)
Библиотека кодирования           : DivX 6.8.2 (UTC 2008-05-17)

Аудио
Идентификатор                    : 1
Формат                           : AC-3
Формат/Информация                : Audio Coding 3
Расширение режима                : CM (complete main)
Идентификатор кодека             : 2000
Продолжительность                : 1 ч. 47 м.
Вид битрейта                     : Постоянный
Битрейт                          : 384 Кбит/сек
Канал(ы)                         : 6 канала(ов)
Расположение каналов             : Front: L C R, Side: L R, LFE
Частота                          : 48,0 КГц
Битовая глубина                  : 16 бит
Метод сжатия                     : С потерями
Размер потока                    : 294 Мбайт (21%)
Выравнивание                     : Разделение по промежуткам
Продолжительность промежутка     : 40  мс. (1,00 видеокадр)
Время предзагрузки промежутка    : 500 ms

    * Кейко, касатка, использованная в съёмках фильма, умерла 12 декабря 2003 года от приступа пневмонии у берегов Норвегии. На тот момент киту было 27 лет.
    * Большой кассовый успех и популярность фильма послужили отправной точкой для кампании писем и целого движения с целью освободить из неволи касатку Кейко, находящуюся в парке развлечений Reino Aventura в Мехико-Сити. Под пристальным вниманием средств массовой информации касатка с помощью американских военно-воздушных сил была перевезена в больший по размеру бассейн в штате Орегон, а затем через время выпущена на свободу.
    * В конце фильма во время финальных титров был показан номер телефона Фонда охраны китов, по которому позвонили миллионы любителей кино, а общая сумма полученных пожертвований составила около 20 млн долларов.
    * В наиболее сложных сценах вместо живой касатки была использована аниматронная модель, в сцене развязки в конце фильма на первый план полностью вышла компьютерная графика.
    * Съёмки картины прошли с 18 мая по 17 августа 1992 года в американском штате Орегон и мексиканском Мехико-Сити.

Освободите Вилли 2: Новое приключение

Free Willy 2: The Adventure Home
#777Страна: США, Франция
Оригинальное название: Free Willy 2: The Adventure Home
Русское название: Освободите Вилли 2: Новое приключение
Год выпуска: 1995
Жанр: драма, приключения, семейный

Описание фильма:
Прошло два года с тех пор, как Вилли был выпущен на волю. Во время каникул Джесси с родителями отправляется на побережье, где люди часто видели одинокую касатку. Встреча старых друзей была радостной, но, к сожалению, недолгой: старый танкер сел на мель инефть, вытекающая из судна, поставила под угрозу жизнь Вилли и всех остальных обитателей океана.

Режиссер: Дуайт Х. Литтл
Актеры: Джейсон Джеймс Рихтер, Френсис Капра, Мэри Кейт Шеллхардт, Аугуст Шелленберг, Майкл Мэдсен, Нил Матараццо, Джэйн Эткинсон, Майкелти Уильямсон, Элизабет Пенья, Джон Тенни



Продолжительность: 01:33:51
Перевод: Профессиональный (многоголосый, закадровый)
Субтитры: нет

Качество видео: DVDRip
Формат: AVI
Видео: 720x288 (2.50:1), 25 fps, DivX Codec 5.x or 6.x ~1691 kbps avg, 0.33 bit/pixel
Аудио: 48 kHz, AC3 Dolby Digital, 3/2 (L,C,R,l,r) + LFE ch, ~384.00 kbps avg
Код:
Код:
Общее
Полное имя                       : C:\Users\Admin\Downloads\Освободите Вилли - Трилогия DVDRip\Освободите Вилли 2.avi
Формат                           : AVI
Формат/Информация                : Audio Video Interleave
Размер файла                     : 1,37 Гбайт
Продолжительность                : 1 ч. 33 м.
Общий поток                      : 2086 Кбит/сек
Программа кодирования            : VirtualDubMod 1.5.10.1 (build 2366/release)
Библиотека кодирования           : VirtualDubMod build 2366/release

Видео
Идентификатор                    : 0
Формат                           : MPEG-4 Visual
Параметр BVOP формата            : 1
Параметр QPel формата            : Нет
Параметр GMC формата             : Без точки перехода
Параметр матрицы формата         : Default (H.263)
Режим смешивания                 : Сжатый битовый поток
Идентификатор кодека             : DX50
Идентификатор кодека/Подсказка   : DivX 5
Продолжительность                : 1 ч. 33 м.
Битрейт                          : 1692 Кбит/сек
Ширина                           : 720 пикс.
Высота                           : 288 пикс.
Соотношение сторон               : 2,500
Частота кадров                   : 25,000 кадр/сек
Цветовое пространство            : YUV
Подвыборка цветности             : 4:2:0
Битовая глубина                  : 8 бит
Тип развёртки                    : Прогрессивная
Метод сжатия                     : С потерями
Бит/(Пиксели*Кадры)              : 0.326
Размер потока                    : 1,11 Гбайт (81%)
Библиотека кодирования           : DivX 6.8.2 (UTC 2008-05-17)

Аудио
Идентификатор                    : 1
Формат                           : AC-3
Формат/Информация                : Audio Coding 3
Расширение режима                : CM (complete main)
Идентификатор кодека             : 2000
Продолжительность                : 1 ч. 33 м.
Вид битрейта                     : Постоянный
Битрейт                          : 384 Кбит/сек
Канал(ы)                         : 6 канала(ов)
Расположение каналов             : Front: L C R, Side: L R, LFE
Частота                          : 48,0 КГц
Битовая глубина                  : 16 бит
Метод сжатия                     : С потерями
Размер потока                    : 258 Мбайт (18%)
Выравнивание                     : Разделение по промежуткам
Продолжительность промежутка     : 40  мс. (1,00 видеокадр)
Время предзагрузки промежутка    : 500 ms


Освободите Вилли 3: Спасение

Free Willy 3: The Rescue
#777Страна: США, Франция
Оригинальное название: Free Willy 3: The Rescue
Русское название: Освободите Вилли 3: Спасение
Год выпуска: 1997
Жанр: драма, приключения, семейный

Описание фильма:
Однажды китобой, занимющийся незаконным промыслом, решает взять с собой в море малолетнего сына с тем, чтобы научить его `искусству` убивать китов. Но судьба распорядилась так, что он сам становится объектом охоты кита - убийцы. Лишь дружба мальчика с касаткой спасает китобоя от неминуемой гибели.

Режиссер: Сэм Пиллсбери
Актеры: Джейсон Джеймс Рихтер, Аугуст Шелленберг, Энни Корли, Винсент Берри, Патрик Килпэтрик, Таша Симс, Питер ЛаКруа, Стефен Е. Миллер, Йен Трэйси, Мэттью Уолкер



Продолжительность: 01:22:04
Перевод: Профессиональный (многоголосый, закадровый)
Субтитры: нет

Качество видео: DVDRip
Формат: AVI
Видео: 720x400 (1.80:1), 25 fps, DivX Codec 5.x or 6.x ~1991 kbps avg, 0.28 bit/pixel
Аудио: 48 kHz, AC3 Dolby Digital, 3/2 (L,C,R,l,r) + LFE ch, ~384.00 kbps avg
Код:
Код:
Общее
Полное имя                       : C:\Users\Admin\Downloads\Освободите Вилли - Трилогия DVDRip\Освободите Вилли 3.avi
Формат                           : AVI
Формат/Информация                : Audio Video Interleave
Размер файла                     : 1,37 Гбайт
Продолжительность                : 1 ч. 22 м.
Общий поток                      : 2386 Кбит/сек
Программа кодирования            : VirtualDubMod 1.5.10.1 (build 2366/release)
Библиотека кодирования           : VirtualDubMod build 2366/release

Видео
Идентификатор                    : 0
Формат                           : MPEG-4 Visual
Параметр BVOP формата            : 1
Параметр QPel формата            : Нет
Параметр GMC формата             : Без точки перехода
Параметр матрицы формата         : Default (H.263)
Режим смешивания                 : Сжатый битовый поток
Идентификатор кодека             : DX50
Идентификатор кодека/Подсказка   : DivX 5
Продолжительность                : 1 ч. 22 м.
Битрейт                          : 1992 Кбит/сек
Ширина                           : 720 пикс.
Высота                           : 400 пикс.
Соотношение сторон               : 16:9
Частота кадров                   : 25,000 кадр/сек
Цветовое пространство            : YUV
Подвыборка цветности             : 4:2:0
Битовая глубина                  : 8 бит
Тип развёртки                    : Прогрессивная
Метод сжатия                     : С потерями
Бит/(Пиксели*Кадры)              : 0.277
Размер потока                    : 1,14 Гбайт (84%)
Библиотека кодирования           : DivX 6.8.2 (UTC 2008-05-17)

Аудио
Идентификатор                    : 1
Формат                           : AC-3
Формат/Информация                : Audio Coding 3
Расширение режима                : CM (complete main)
Идентификатор кодека             : 2000
Продолжительность                : 1 ч. 22 м.
Вид битрейта                     : Постоянный
Битрейт                          : 384 Кбит/сек
Канал(ы)                         : 6 канала(ов)
Расположение каналов             : Front: L C R, Side: L R, LFE
Частота                          : 48,0 КГц
Битовая глубина                  : 16 бит
Метод сжатия                     : С потерями
Размер потока                    : 225 Мбайт (16%)
Выравнивание                     : Разделение по промежуткам
Продолжительность промежутка     : 40  мс. (1,00 видеокадр)
Время предзагрузки промежутка    : 500 ms

    * Кадры рождения касатки в конце фильма были засняты в Ванкуверском океанариуме, когда самка Бьосса произвела на свет малыша, получившего имя К’йоша. По счастливому совпадению отец детёныша, как и Вилли в фильме, тоже имел изогнутый плавник и поэтому мог быть использован в кадре.
    * Съемки прошли с 31 июля по 10 октября 1996 года в канадском Ванкувере и его окрестностях.
загрузка...
Правила, инструкции, FAQ!!!
Торрент  Добавлен [09 авг 2014, 21:30] Скачать торрент
Скачать торрент
[ Размер 21.49 КБ / Просмотров 18 ]

Статус
Проверен 
 
Размер  4.1 ГБ
Приватный: Нет (DHT включён)
.torrent скачан  1
Как залить торрент? | Как скачать Torrent? | Как смотреть и слушать онлайн?  


     Отправить личное сообщение
   
Страница 1 из 1
Показать сообщения за:  Поле сортировки  
Начать новую тему Ответить на тему

   Похожие торренты   Автор   Ответы   Просмотры   Последнее сообщение 
В этой теме нет новых непрочитанных сообщений. Скачать торрент Проверен Маньяк-полицейский: Трилогия / Maniac Cop: Trilogy (1988-1993) BDRip | A

в форуме Трилогии, Размер: 4.28 ГБ, Здоровье: 100%

Гость

0
113|97

163
191

07 апр 2015, 17:25

Гость Перейти к последнему сообщению

В этой теме нет новых непрочитанных сообщений. Скачать торрент Проверен Куб: Трилогия / Cube: Trilogy (1997-2004) BDRip-AVC, HDTVRip-AVC | Лицензия

в форуме Трилогии, Размер: 6.54 ГБ, Здоровье: 100%

Anonymous

0
162|28

221
1762

23 авг 2014, 09:13

Anonymous Перейти к последнему сообщению

В этой теме нет новых непрочитанных сообщений. Скачать торрент Проверен Робокоп: Трилогия / RoboCop: Trilogy (1987/1990/1993) BDRip [H.264/1080p]

в форуме 720p | 1080p, Размер: 54.01 ГБ, Здоровье: 71%

Гость

0
5|7

255
0

27 июл 2015, 22:45

Гость Перейти к последнему сообщению

В этой теме нет новых непрочитанных сообщений. Скачать торрент Проверен [iPhone] Риддик - Трилогия / Riddick Trilogy (Дэвид Туи, Питер Чунг) [ужасы, фантастика, триллер, приключения,HDRip,BDRip, DVDRip]

в форуме Фильмы для iPod, iPhone, iPad, Размер: 1.38 ГБ, Здоровье: 100%

Anonymous

0
48|3

47
2

14 май 2015, 00:02

Anonymous Перейти к последнему сообщению

В этой теме нет новых непрочитанных сообщений. Скачать торрент Проверен Риддик - Трилогия / Riddick Trilogy UPDATE 2 (David Twohy, Peter Chung) [Action, Adventure, Horror, Science - Fiction (Sci-Fi), DVDRip]

в форуме Фильмы для iPod, iPhone, iPad, Размер: 2.83 ГБ, Здоровье: 100%

Гость

0
10|4

192
3

14 май 2015, 00:25

Гость Перейти к последнему сообщению



Сейчас этот форум просматривают: нет зарегистрированных пользователей и гости: 1


Вы не можете начинать темы
Вы не можете отвечать на сообщения
Вы не можете редактировать свои сообщения
Вы не можете удалять свои сообщения
Вы не можете добавлять вложения

Перейти:  

!ВНИМАНИЕ!
 Ресурс не предоставляет электронные версии произведений, а занимается лишь коллекционированием и каталогизацией ссылок, присылаемых и публикуемых на форуме нашими читателями. Если вы являетесь правообладателем какого-либо представленного материала и не желаете чтобы ссылка на него находилась в нашем каталоге, свяжитесь с нами и мы незамедлительно удалим её. Файлы для обмена на трекере предоставлены пользователями сайта, и администрация не несёт ответственности за их содержание. Просьба не заливать файлы, защищенные авторскими правами, а также файлы нелегального содержания!