На всех торрентах на трекере установлена скидка на скачивание в размере 100 процентов(а).
 Возможность скачивания торрента НЕ зависит от ограничений при низком ратио, низком аплоаде, требуемом ратио или требуемом аплоаде.


Начать новую тему Ответить на тему
Статистика раздачи
Размер: 11.19 ГБ | Добавлен: 09 авг 2014, 21:29 | Скачали: 0
Сидеров: 297  [0 байт/сек]    Личеров: 5  [0 байт/сек]
Пред. тема | След. тема 

Автор
Сообщение

СообщениеДобавлено: 09 авг 2014, 21:29 

Три орешка для Золушки / Tři oříšky pro Popelku / Drei Haselnüsse für Aschenbrödel (1973) BDRip

Русское название: Три орешка для Золушки
Оригинальное название: Tři oříšky pro Popelku / Drei Haselnüsse für Aschenbrödel
Год выпуска: 1973
Производство: Чехословакия/ГДР, Filmove Studio Barrandov, DEFA
Жанр: Семейный

Режиссер: Вацлав Ворличек / Václav Vorlícek
Актеры: Либуше Шафранкова, Павел Травничек, Рольф Хоппе, Карола Браунбок, Карин Леш, Дана Главачова, Ян Либичек, Витежслав Яндак, Ярослав Дрбоглав, Владимир Меншик, Гелена Ружичкова

Описание фильма:
Мачеха Золушки всеми силами хочет выдать свою глупую и злую родную дочь замуж за Принца. Но тому совсем не хочется жениться, он ссорится с отцом и собирается покинуть дворец, но... в последний момент он влюбляется в очаровательную незнакомку в маске, которая быстро исчезает. Принц и не догадывается, что эта прекрасная девушка, ловкий стрелок, которого он встретил в лесу и озорная девчонка - одно и то же лицо. Все эти превращения оказались возможными благодаря волшебным орешкам, в одном из которых находился и свадебный подарок для Золушки.



Продолжительность: 01:22:55
Перевод: Дублированный / Профессиональный многоголосный, закадровый
Язык субтитров: русские (с дубляжа), русские (с многоголоски), немецкие, английские
Вид субтитров: softsub (SRT)

Формат: MKV
Видеокодек: MPEG-4 AVC/H.264
Битрейт видео: ~16.7 Mb/s, 25fps
Размер кадра: 1440 x 1080
Аудио 1: Русский: AC3 2.0, 48.0 KHz, 384kbps - Профессиональный (Советский Дубляж)
Аудио 2: Русский: AC3 2.0, 48.0 KHz, 192kbps - Профессиональный (Многоголосый, закадровый)
Аудио 3: Чешский: AC3 2.0, 48.0 KHz, 192kbps - Original
Аудио 4: Немецкий: DTS 5.1, 48.0 KHz, 1510kbps - Original
Сэмпл: Ссылка
General
Complete name : Drei.Haselnuesse.fuer.Aschenbroedel.1973.BDRip.OAR.AC3.DTS.1080p.x264.ssp43.mkv
Format : Matroska
File size : 11.2 GiB
Duration : 1h 22mn
Overall bit rate : 19.3 Mbps
Encoded date : UTC 2011-04-11 15:41:35
Writing application : mkvmerge v4.4.0 ('Die Wiederkehr')
Writing library : libebml v1.2.0 + libmatroska v1.1.0
Video
ID : 1
Format : AVC
Format/Info : Advanced Video Codec
Format profile :
Format settings, CABAC : Yes
Format settings, ReFrames : 5 frames
Muxing mode : Container profile=Unknown@4.1
Codec ID : V_MPEG4/ISO/AVC
Duration : 1h 22mn
Bit rate : 16.7 Mbps
Width : 1 440 pixels
Height : 1 080 pixels
Display aspect ratio : 4:3
Frame rate : 25.000 fps
Color space : YUV
Chroma subsampling : 4:2:0
Bit depth : 8 bits
Scan type : Progressive
Bits/(Pixel*Frame) : 0.429
Stream size : 9.65 GiB (86%)
Writing library : x264 core 114 r1913 5fd3dce
Encoding settings : cabac=1 / ref=5 / deblock=1:-3:-3 / analyse=0x3:0x133 / me=umh / subme=10 / psy=1 / psy_rd=1.00:0.00 / mixed_ref=1 / me_range=32 / chroma_me=1 / trellis=2 /
8x8dct=1 / cqm=0 / deadzone=21,11 / fast_pskip=0 / chroma_qp_offset=-2 / threads=4 / sliced_threads=0 / nr=0 / decimate=0 / interlaced=0 / constrained_intra=0 / bframes=8 / b_pyramid=2 /
b_adapt=2 / b_bias=0 / direct=3 / weightb=1 / open_gop=0 / weightp=2 / keyint=250 / keyint_min=25 / scenecut=40 / intra_refresh=0 / rc_lookahead=40 / rc=crf / mbtree=1 / crf=16.0 /
qcomp=0.60 / qpmin=10 / qpmax=51 / qpstep=4 / vbv_maxrate=50000 / vbv_bufsize=62500 / crf_max=0.0 / nal_hrd=none / ip_ratio=1.40 / aq=1:1.00
Audio #1
ID : 2
Format : AC-3
Format/Info : Audio Coding 3
Mode extension : CM (complete main)
Codec ID : A_AC3
Duration : 1h 22mn
Bit rate mode : Constant
Bit rate : 384 Kbps
Channel(s) : 2 channels
Channel positions : Front: L R
Sampling rate : 48.0 KHz
Bit depth : 16 bits
Stream size : 228 MiB (2%)
Title : Dub AC3 - 2.0 384Kbps
Language : Russian
Audio #2
ID : 3
Format : AC-3
Format/Info : Audio Coding 3
Mode extension : CM (complete main)
Codec ID : A_AC3
Duration : 1h 22mn
Bit rate mode : Constant
Bit rate : 192 Kbps
Channel(s) : 2 channels
Channel positions : Front: L R
Sampling rate : 48.0 KHz
Bit depth : 16 bits
Stream size : 114 MiB (1%)
Title : MVO AC3 - 2.0 192Kbps
Language : Russian
Audio #3
ID : 4
Format : AC-3
Format/Info : Audio Coding 3
Mode extension : CM (complete main)
Codec ID : A_AC3
Duration : 1h 22mn
Bit rate mode : Constant
Bit rate : 192 Kbps
Channel(s) : 2 channels
Channel positions : Front: L R
Sampling rate : 48.0 KHz
Bit depth : 16 bits
Stream size : 114 MiB (1%)
Title : AC3 - 2.0 192Kbps
Language : Czech
Audio #4
ID : 5
Format : DTS
Format/Info : Digital Theater Systems
Codec ID : A_DTS
Duration : 1h 22mn
Bit rate mode : Constant
Bit rate : 1 510 Kbps
Channel(s) : 6 channels
Channel positions : Front: L C R, Side: L R, LFE
Sampling rate : 48.0 KHz
Bit depth : 24 bits
Stream size : 895 MiB (8%)
Title : DTS - 5.1 1510Kbps
Language : German
Text #1
ID : 6
Format : UTF-8
Codec ID : S_TEXT/UTF8
Codec ID/Info : UTF-8 Plain Text
Title : DUB
Language : Russian
Text #2
ID : 7
Format : UTF-8
Codec ID : S_TEXT/UTF8
Codec ID/Info : UTF-8 Plain Text
Title : MVO
Language : Russian
Text #3
ID : 8
Format : UTF-8
Codec ID : S_TEXT/UTF8
Codec ID/Info : UTF-8 Plain Text
Language : German
Text #4
ID : 9
Format : UTF-8
Codec ID : S_TEXT/UTF8
Codec ID/Info : UTF-8 Plain Text
Menu
00:00:00.000 : en:00:00:00.000
00:04:21.520 : en:00:04:21.520
00:14:37.680 : en:00:14:37.680
00:25:16.760 : en:00:25:16.760
00:35:27.600 : en:00:35:27.600
00:45:40.520 : en:00:45:40.520
00:54:49.800 : en:00:54:49.800
01:06:12.080 : en:01:06:12.080
01:17:44.080 : en:01:17:44.080
01:22:10.000 : en:01:22:10.000
y4m [info]: 1440x1080p 1:1 @ 25/1 fps (cfr)
x264 [info]: using SAR=1/1
x264 [info]: using cpu capabilities: MMX2 SSE2Fast SSSE3 Cache64
x264 [info]: profile High, level 4.1
x264 [info]: frame I:698 Avg QP:15.61 size:232404 PSNR Mean Y:49.49 U:52.12 V:53.15 Avg:50.28 Global:50.04
x264 [info]: frame P:26968 Avg QP:18.09 size:130336 PSNR Mean Y:46.60 U:49.75 V:50.78 Avg:47.49 Global:47.31
x264 [info]: frame B:95735 Avg QP:20.37 size: 72413 PSNR Mean Y:44.74 U:48.58 V:49.96 Avg:45.77 Global:45.52
x264 [info]: consecutive B-frames: 1.0% 1.7% 9.5% 26.3% 21.7% 34.9% 3.4% 1.1% 0.2%
x264 [info]: mb I I16..4: 1.6% 95.3% 3.1%
x264 [info]: mb P I16..4: 0.6% 44.1% 1.4% P16..4: 23.7% 21.1% 6.1% 0.7% 0.2% skip: 2.1%
x264 [info]: mb B I16..4: 0.1% 14.6% 0.2% B16..8: 33.9% 16.6% 5.0% direct:20.0% skip: 9.6% L0:36.3% L1:29.8% BI:34.0%
x264 [info]: 8x8 transform intra:96.8% inter:75.4%
x264 [info]: direct mvs spatial:100.0% temporal:0.0%
x264 [info]: coded y,uvDC,uvAC intra: 97.5% 94.8% 66.8% inter: 72.4% 58.8% 12.4%
x264 [info]: i16 v,h,dc,p: 68% 13% 9% 10%
x264 [info]: i8 v,h,dc,ddl,ddr,vr,hd,vl,hu: 14% 10% 11% 8% 11% 11% 10% 12% 14%
x264 [info]: i4 v,h,dc,ddl,ddr,vr,hd,vl,hu: 14% 8% 3% 8% 15% 16% 13% 12% 12%
x264 [info]: i8c dc,h,v,p: 50% 21% 19% 10%
x264 [info]: Weighted P-Frames: Y:10.3% UV:2.7%
x264 [info]: ref P L0: 41.4% 16.5% 21.3% 9.8% 9.2% 1.9% 0.0%
x264 [info]: ref B L0: 82.6% 12.8% 3.3% 1.3%
x264 [info]: ref B L1: 94.7% 5.3%
x264 [info]: SSIM Mean Y:0.9853085 (18.329db)
x264 [info]: PSNR Mean Y:45.176 U:48.854 V:50.155 Avg:46.174 Global:45.868 kb/s:17195.23
encoded 123401 frames, 1.04 fps, 17195.23 kb/s
Скриншоты:
загрузка...
Правила, инструкции, FAQ!!!
Торрент  Добавлен [09 авг 2014, 21:29] Скачать торрент
Скачать торрент
[ Размер 28.83 КБ / Просмотров 8 ]

Статус
Проверен 
 
Размер  11.19 ГБ
Приватный: Нет (DHT включён)
.torrent скачан  0
Как залить торрент? | Как скачать Torrent? | Как смотреть и слушать онлайн?  


     Отправить личное сообщение
   
Страница 1 из 1
Показать сообщения за:  Поле сортировки  
Начать новую тему Ответить на тему

   Похожие торренты   Автор   Ответы   Просмотры   Последнее сообщение 
В этой теме нет новых непрочитанных сообщений. Скачать торрент Disney Cinderella's Castle Designer / Замок Золушки /Дворец для Золушки / Королевство для Золушки [P] [RUS + ENG] (2003) [4-7]

в форуме Детские, Размер: 650.56 МБ, Здоровье: 100%

Anonymous

0
60|6

237
14

20 апр 2014, 10:07

Anonymous Перейти к последнему сообщению

В этой теме нет новых непрочитанных сообщений. Скачать торрент Баллада о бомбере (2011) BDRip 1080р

в форуме 720p | 1080p, Размер: 17.45 ГБ, Здоровье: 0%

Anonymous

0
0|0

20
0

19 фев 2014, 09:01

Anonymous Перейти к последнему сообщению

В этой теме нет новых непрочитанных сообщений. Скачать торрент Чтец / The Reader (2008) BDRip 1080р

в форуме 720p | 1080p, Размер: 5.52 ГБ, Здоровье: 0%

Anonymous

0
0|0

27
0

08 янв 2014, 23:13

Anonymous Перейти к последнему сообщению

В этой теме нет новых непрочитанных сообщений. Скачать торрент Проверен U.D.O. - Live in Sofia (2012) BDRip [H.264/1080р]

в форуме Концерты (HD-Video), Размер: 15.4 ГБ, Здоровье: 15%

Гость

0
3|19

139
3

26 июл 2015, 12:37

Гость Перейти к последнему сообщению

В этой теме нет новых непрочитанных сообщений. Скачать торрент Большой куш / Snatch. (2000) BDRip 1080р

в форуме 720p | 1080p, Размер: 5.89 ГБ, Здоровье: 100%

Anonymous

0
30|2

47
338

28 мар 2014, 13:47

Anonymous Перейти к последнему сообщению



Сейчас этот форум просматривают: нет зарегистрированных пользователей и гости: 1


Вы не можете начинать темы
Вы не можете отвечать на сообщения
Вы не можете редактировать свои сообщения
Вы не можете удалять свои сообщения
Вы не можете добавлять вложения

Перейти:  

!ВНИМАНИЕ!
 Ресурс не предоставляет электронные версии произведений, а занимается лишь коллекционированием и каталогизацией ссылок, присылаемых и публикуемых на форуме нашими читателями. Если вы являетесь правообладателем какого-либо представленного материала и не желаете чтобы ссылка на него находилась в нашем каталоге, свяжитесь с нами и мы незамедлительно удалим её. Файлы для обмена на трекере предоставлены пользователями сайта, и администрация не несёт ответственности за их содержание. Просьба не заливать файлы, защищенные авторскими правами, а также файлы нелегального содержания!