На всех торрентах на трекере установлена скидка на скачивание в размере 100 процентов(а).
 Возможность скачивания торрента НЕ зависит от ограничений при низком ратио, низком аплоаде, требуемом ратио или требуемом аплоаде.


Начать новую тему Ответить на тему
Статистика раздачи
Размер: 743.28 МБ | Добавлен: 09 авг 2014, 21:29 | Скачали: 4
Сидеров: 16  [0 байт/сек]    Личеров: 4  [0 байт/сек]
Пред. тема | След. тема 

Автор
Сообщение

СообщениеДобавлено: 09 авг 2014, 21:29 

Русское название: Тайна старого чердака
Оригинальное название: Tajemství staré pudy
Год выпуска: 1984
Жанр: Приключения, Фантастика

Описание фильма:
Подросткам удалось проникнуть в лабораторию старого изобретателя, разобраться в его записях и привести в действие загадочный прибор, который оказывается антигравитационной пушкой, способный перемещать предметы в пространстве…

Режиссер: Владимир Тадей
Актеры: М. Миркович /Mario Mirkovic/, И. Гурича /Jirí Guryca/, Н. Петрович /Nina Petrovic/, Р. Битораянц /Rene Bitorajac/, Ш. Губерина /Spiro Guberina/, М. Оревович /Mia Oremovic/, Б. Дворник /Boris Dvornik/, Я. Коныза /Jan Kanyza/, П. Еласка /Petar Jelaska/

Продолжительность: 01:15:31
Перевод: Дублированный


Видеокодек: Xvid
Битрейт видео: ~1270 Кбит/сек
Размер кадра: 608x456
Качество видео: DVDRip
Аудиокодек: MP3, 1 ch
Битрейт аудио: 96,0 Кбит/сек
Общее
Полное имя : G:\!V\2013\Тайна старого чердака Tajna starog tavana Tajemství staré pudy 1984\Tajna.starogo.cherdaka.1984.avi
Формат : AVI
Формат/Информация : Audio Video Interleave
Размер файла : 743 Мбайт
Продолжительность : 1 ч. 15 м.
Общий поток : 1376 Кбит/сек
Название фильма : Тайна старого чердака / Tajna starog tavana / Tajemstvi stare pudy / (1984)
Программа кодирования : VirtualDubModRus 1.5.10.2 (build 2540/release)

Видео
Идентификатор : 0
Формат : MPEG-4 Visual
Профиль формата : Advanced Simple@L5
Параметр BVOP формата : 2
Параметр QPel формата : Нет
Параметр GMC формата : Без точки перехода
Параметр матрицы формата : Default (MPEG)
Идентификатор кодека : XVID
Идентификатор кодека/Подсказка : XviD
Продолжительность : 1 ч. 15 м.
Битрейт : 1270 Кбит/сек
Ширина : 608 пикселей
Высота : 456 пикселей
Соотношение сторон : 4:3
Частота кадров : 25,000 кадров/сек
Цветовое пространство : YUV
Субдискретизация насыщенности : 4:2:0
Битовая глубина : 8 бит
Тип развёртки : Прогрессивная
Метод сжатия : С потерями
Бит/(Пиксели*Кадры) : 0.183
Размер потока : 686 Мбайт (92%)
Библиотека кодирования : XviD 1.2.1 (UTC 2008-12-04)

Аудио
Идентификатор : 1
Формат : MPEG Audio
Версия формата : Version 1
Профиль формата : Layer 3
Идентификатор кодека : 55
Идентификатор кодека/Подсказка : MP3
Продолжительность : 1 ч. 15 м.
Вид битрейта : Постоянный
Битрейт : 96,0 Кбит/сек
Каналы : 1 канал
Частота : 48,0 КГц
Метод сжатия : С потерями
Размер потока : 51,9 Мбайт (7%)
Выравнивание : Соединение по промежуткам
Продолжительность промежутка : 40 мс. (1,00 видеокадр)
Время предзагрузки промежутка : 504 мс.
Скриншоты:


загрузка...
Правила, инструкции, FAQ!!!
Торрент  Добавлен [09 авг 2014, 21:29] Скачать торрент
Скачать торрент
[ Размер 15.37 КБ / Просмотров 22 ]

Статус
Проверен 
 
Размер  743.28 МБ
Приватный: Нет (DHT включён)
.torrent скачан  4
Как залить торрент? | Как скачать Torrent? | Как смотреть и слушать онлайн?  


     Отправить личное сообщение
   
Страница 1 из 1
Показать сообщения за:  Поле сортировки  
Начать новую тему Ответить на тему

   Похожие торренты   Автор   Ответы   Просмотры   Последнее сообщение 
В этой теме нет новых непрочитанных сообщений. Скачать торрент Проверен Тайна третьей планеты (1981) DVDRip

в форуме Отечественные мультфильмы, Размер: 740.72 МБ, Здоровье: 100%

Anonymous

0
10|3

200
1

27 мар 2015, 00:27

Anonymous Перейти к последнему сообщению

В этой теме нет новых непрочитанных сообщений. Скачать торрент Проверен Тайна Обервальда / Il mistero di Oberwald (1980) DVDRip

в форуме Драмы, Мелодрамы, Размер: 1.36 ГБ, Здоровье: 100%

Гость

0
42|26

131
61

21 апр 2015, 17:25

Гость Перейти к последнему сообщению

В этой теме нет новых непрочитанных сообщений. Скачать торрент Проверен Тайна горного озера (Александр Роу) [1954, Приключения, DVDRip]

в форуме Детское, Семейное кино, Размер: 1.2 ГБ, Здоровье: 100%

Anonymous

0
34|11

17
1

10 апр 2016, 20:23

Anonymous Перейти к последнему сообщению

В этой теме нет новых непрочитанных сообщений. Скачать торрент Проверен Тайна поместья Уиверн / The Wyvern Mystery (2000) DVDRip

в форуме Драмы, Мелодрамы, Размер: 2.28 ГБ, Здоровье: 100%

Anonymous

0
139|30

105
332

27 апр 2015, 23:44

Anonymous Перейти к последнему сообщению

В этой теме нет новых непрочитанных сообщений. Скачать торрент Проверен Тайна записной книжки (Владимир Шамшурин) [1981 г., детектив, DVDRip]

в форуме Кино СССР, Размер: 1.37 ГБ, Здоровье: 100%

Anonymous

0
27|6

135
3

21 окт 2014, 21:00

Anonymous Перейти к последнему сообщению



Сейчас этот форум просматривают: нет зарегистрированных пользователей и гости: 1


Вы не можете начинать темы
Вы не можете отвечать на сообщения
Вы не можете редактировать свои сообщения
Вы не можете удалять свои сообщения
Вы не можете добавлять вложения

Перейти:  

!ВНИМАНИЕ!
 Ресурс не предоставляет электронные версии произведений, а занимается лишь коллекционированием и каталогизацией ссылок, присылаемых и публикуемых на форуме нашими читателями. Если вы являетесь правообладателем какого-либо представленного материала и не желаете чтобы ссылка на него находилась в нашем каталоге, свяжитесь с нами и мы незамедлительно удалим её. Файлы для обмена на трекере предоставлены пользователями сайта, и администрация не несёт ответственности за их содержание. Просьба не заливать файлы, защищенные авторскими правами, а также файлы нелегального содержания!