На всех торрентах на трекере установлена скидка на скачивание в размере 100 процентов(а).
 Возможность скачивания торрента НЕ зависит от ограничений при низком ратио, низком аплоаде, требуемом ратио или требуемом аплоаде.


Начать новую тему Ответить на тему
Статистика раздачи
Размер: 1.37 ГБ | Добавлен: 09 авг 2014, 21:28 | Скачали: 1
Сидеров: 42  [0 байт/сек]    Личеров: 1  [0 байт/сек]
Пред. тема | След. тема 

Автор
Сообщение

СообщениеДобавлено: 09 авг 2014, 21:28 

Год выпуска: 2013
Производство: США, Великобритания, Индия, Animal Logic, BBC Earth, BBC Worldwide
Жанр: Анимация, Приключения, Семейный
Перевод: Дублированный | Лицензия |
Субтитры: Отсутствуют

Дата мировой премьеры: 14 декабря 2013
Дата российской премьеры: 19 декабря 2013, «Двадцатый Век Фокс СНГ»
Дата выхода DVD релиза: 10 апреля 2014, «Двадцатый Век Фокс СНГ»

Режиссер: Бэрри Кук, Нил Найтингейл
Продюсер: Майк Дэвлин, Люк Хетерингтон, Аманда Хилл
Актеры: Чарли Роу, Карл Урбан, Ангури Райс, Джон Легуизамо, Джастин Лонг, Скайлер Стоун, Тия Сиркар, Клэй Сэвадж, Джуд Тинсели, Мэри Мэтилин Маусер

Описание фильма:
«Прогулки с динозаврами» — это увлекательное путешествие с полным погружением в 3D-реальность, созданную по инновационной технологии CGI. Мы увидим, как выглядели динозавры, как они жили и с какими опасностями им пришлось столкнуться. Главный герой истории — храбрый динозаврик Патчи, он самый маленький в семье, но именно ему предстоит стать лидером и спасти своих сородичей.



Возраст: 0+

Продолжительность: 01:27:23
Качество видео: HDRip

Видеокодек: XviD
Битрейт видео: 1780 kb/s
Размер кадра: 720x304
Аудиокодек: AC3 5.1
Битрейт аудио: 448 kb/s
Код:
Код:
Общее
Полное имя                               : D:\Раздачи\Progulki.s.dinozavrami.2013.HDRip.NNM-CLUB.avi
Формат                                   : AVI
Формат/Информация                        : Audio Video Interleave
Размер файла                             : 1,37 Гбайт
Продолжительность                        : 1 ч. 27 м.
Общий поток                              : 2238 Кбит/сек
Программа кодирования                    : VirtualDubMod 1.5.10.2 (build 2540/release)
Библиотека кодирования                   : VirtualDubMod build 2540/release

Видео
Идентификатор                            : 0
Формат                                   : MPEG-4 Visual
Профиль формата                          : Advanced Simple@L5
Параметр BVOP формата                    : 2
Параметр QPel формата                    : Нет
Параметр GMC формата                     : Без точки перехода
Параметр матрицы формата                 : Выборочная
Идентификатор кодека                     : XVID
Идентификатор кодека/Подсказка           : XviD
Продолжительность                        : 1 ч. 27 м.
Битрейт                                  : 1780 Кбит/сек
Ширина                                   : 720 пикселей
Высота                                   : 304 пикселя
Соотношение сторон                       : 2,35:1
Частота кадров                           : 23,976 кадра/сек
Цветовое пространство                    : YUV
Субдискретизация насыщенности            : 4:2:0
Битовая глубина                          : 8 бит
Тип развёртки                            : Прогрессивная
Метод сжатия                             : С потерями
Бит/(Пиксели*Кадры)                      : 0.339
Размер потока                            : 1,09 Гбайт (80%)
Библиотека кодирования                   : XviD 1.2.1 (UTC 2008-12-04)

Аудио
Идентификатор                            : 1
Формат                                   : AC-3
Формат/Информация                        : Audio Coding 3
Расширение режима                        : CM (complete main)
Параметр Endianness формата              : Big
Идентификатор кодека                     : 2000
Продолжительность                        : 1 ч. 27 м.
Вид битрейта                             : Постоянный
Битрейт                                  : 448 Кбит/сек
Каналы                                   : 6 каналов
Расположение каналов                     : Front: L C R, Side: L R, LFE
Частота                                  : 48,0 КГц
Битовая глубина                          : 16 бит
Метод сжатия                             : С потерями
Размер потока                            : 280 Мбайт (20%)
Выравнивание                             : Разделение по промежуткам
Продолжительность промежутка             : 42  мс. (1,00 видеокадр)
Время предзагрузки промежутка            : 500  мс.
Скриншоты:
загрузка...
Правила, инструкции, FAQ!!!
Торрент  Добавлен [09 авг 2014, 21:28] Скачать торрент
Скачать торрент
[ Размер 14.4 КБ / Просмотров 8 ]

Статус
Проверен 
 
Размер  1.37 ГБ
Приватный: Нет (DHT включён)
.torrent скачан  1
Как залить торрент? | Как скачать Torrent? | Как смотреть и слушать онлайн?  


     Отправить личное сообщение
   
Страница 1 из 1
Показать сообщения за:  Поле сортировки  
Начать новую тему Ответить на тему

   Похожие торренты   Автор   Ответы   Просмотры   Последнее сообщение 
В этой теме нет новых непрочитанных сообщений. Скачать торрент Проверен Прогулки с динозаврами / Walking with Dinosaurs (2013) HDRip

в форуме Детское, Семейное кино, Размер: 699.72 МБ, Здоровье: 100%

Anonymous

0
7|1

106
0

09 авг 2014, 21:28

Anonymous Перейти к последнему сообщению

В этой теме нет новых непрочитанных сообщений. Скачать торрент Проверен Прогулки с динозаврами 3D / Walking with Dinosaurs 3D (2013) BDRemux 3D [1080p] [3D/2D]

в форуме BD-Remux, Размер: 26.44 ГБ, Здоровье: ???%

Anonymous

0
0|1

182
2

09 авг 2014, 21:27

Anonymous Перейти к последнему сообщению

В этой теме нет новых непрочитанных сообщений. Скачать торрент Проверен Прогулки с динозаврами 3D / Walking with Dinosaurs 3D (2013) BDRip [1080p]

в форуме 720p | 1080p, Размер: 9.65 ГБ, Здоровье: 100%

Anonymous

0
23|1

35
0

09 авг 2014, 21:27

Anonymous Перейти к последнему сообщению

В этой теме нет новых непрочитанных сообщений. Скачать торрент Прогулки с динозаврами 3D / Walking with Dinosaurs 3D (2013) BDRip 1080p от Ash61 | 3D-Video | halfOU

в форуме HD-Video в 3D, Размер: 9.64 ГБ, Здоровье: 100%

Anonymous

0
168|16

117
1666

15 мар 2014, 08:06

Anonymous Перейти к последнему сообщению

В этой теме нет новых непрочитанных сообщений. Скачать торрент Прогулки с динозаврами 3D / Walking with Dinosaurs 3D (2014) BDRip | Лицензия

в форуме Детское, Семейное кино, Размер: 1.37 ГБ, Здоровье: 0%

Anonymous

0
0|0

133
0

14 мар 2014, 11:38

Anonymous Перейти к последнему сообщению



Сейчас этот форум просматривают: нет зарегистрированных пользователей и гости: 1


Вы не можете начинать темы
Вы не можете отвечать на сообщения
Вы не можете редактировать свои сообщения
Вы не можете удалять свои сообщения
Вы не можете добавлять вложения

Перейти:  

!ВНИМАНИЕ!
 Ресурс не предоставляет электронные версии произведений, а занимается лишь коллекционированием и каталогизацией ссылок, присылаемых и публикуемых на форуме нашими читателями. Если вы являетесь правообладателем какого-либо представленного материала и не желаете чтобы ссылка на него находилась в нашем каталоге, свяжитесь с нами и мы незамедлительно удалим её. Файлы для обмена на трекере предоставлены пользователями сайта, и администрация не несёт ответственности за их содержание. Просьба не заливать файлы, защищенные авторскими правами, а также файлы нелегального содержания!