На всех торрентах на трекере установлена скидка на скачивание в размере 100 процентов(а).
 Возможность скачивания торрента НЕ зависит от ограничений при низком ратио, низком аплоаде, требуемом ратио или требуемом аплоаде.


Начать новую тему Ответить на тему
Статистика раздачи
Размер: 7.63 ГБ | Добавлен: 09 авг 2014, 21:28 | Скачали: 0
Сидеров: 0  [0 байт/сек]    Личеров: 0  [0 байт/сек]
Пред. тема | След. тема 

Автор
Сообщение

СообщениеДобавлено: 09 авг 2014, 21:28 

Год выпуска: 2013
Жанр: Драма, Приключения, Семейный

Описание фильма:
История о приключениях 12-летнего гения по имени Т. С. Спивет, избранные работы которого его приятель рискнул отправить в один известный вашингтонский институт. Неожиданно Спивету звонят из этого института с приглашением приехать забрать престижную награду и заодно выступить с докладом. Мальчик сбегает из дома, но ему нужно проехать через всю страну…

Режиссер: Жан-Пьер Жёне
Актеры: Хелена Бонэм-Картер, Робер Майе, Джуди Дэвис, Коллум Кит Ренни, Джулиан Ричингс, Нив Уилсон, Джейкоб Дэвис, Кайл Катлетт, Эмбер Голдфарб, Доминик Пинон

Продолжительность: 01:45:07
Качество видео: BDRip
Перевод: Отсутствует
Язык: Английский



Видеокодек: MPEG-4 AVC/H.264
Битрейт видео: ~8 884 Kbps
Размер кадра: 1920x800
Аудиокодек: DTS : 6 channels
Битрейт аудио: 1 510 Kbps
Сэмпл: Ссылка
The Young and Prodigious T.S. Spivet.1080p.mkv
Format : Matroska
Format version : Version 2
File size : 7.63 GiB
Duration : 1h 45mn
Overall bit rate : 10.4 Mbps
Writing application : mkvmerge v6.6.0 ('The Edge Of The In Between') built on Dec 1 2013 17:55:00
Writing library : libebml v1.3.0 + libmatroska v1.4.1

Video
ID : 1
Format : AVC
Format/Info : Advanced Video Codec
Format profile :
Format settings, CABAC : Yes
Format settings, ReFrames : 5 frames
Codec ID : V_MPEG4/ISO/AVC
Duration : 1h 45mn
Bit rate : 8 884 Kbps
Width : 1 920 pixels
Height : 800 pixels
Display aspect ratio : 2.40:1
Frame rate : 23.976 fps
Color space : YUV
Chroma subsampling : 4:2:0
Bit depth : 8 bits
Scan type : Progressive
Bits/(Pixel*Frame) : 0.241
Stream size : 6.37 GiB (83%)
Writing library : x264 core 142 r2431 ac76440
Encoding settings : cabac=1 / ref=5 / deblock=1:-3:-3 / analyse=0x3:0x113 / me=umh / subme=8 / psy=1 / psy_rd=1.00:0.00 / mixed_ref=1 / me_range=16 / chroma_me=1 / trellis=1 / 8x8dct=1 / cqm=0 / deadzone=21,11 / fast_pskip=1 / chroma_qp_offset=-2 / threads=12 / lookahead_threads=2 / sliced_threads=0 / nr=0 / decimate=1 / interlaced=0 / bluray_compat=0 / constrained_intra=0 / bframes=3 / b_pyramid=2 / b_adapt=2 / b_bias=0 / direct=3 / weightb=1 / open_gop=0 / weightp=2 / keyint=240 / keyint_min=24 / scenecut=40 / intra_refresh=0 / rc_lookahead=50 / rc=2pass / mbtree=1 / bitrate=8884 / ratetol=1.0 / qcomp=0.60 / qpmin=0 / qpmax=69 / qpstep=4 / cplxblur=20.0 / qblur=0.5 / ip_ratio=1.40 / aq=1:1.00
Language : English
Default : Yes
Forced : No

Audio
ID : 2
Format : DTS
Format/Info : Digital Theater Systems
Codec ID : A_DTS
Duration : 1h 45mn
Bit rate mode : Constant
Bit rate : 1 510 Kbps
Channel(s) : 6 channels
Channel positions : Front: L C R, Side: L R, LFE
Sampling rate : 48.0 KHz
Bit depth : 24 bits
Compression mode : Lossy
Stream size : 1.11 GiB (15%)
Language : English
Default : Yes
Forced : No

Menu
00:00:00.000 : en:00:00:00.000
00:05:48.932 : en:00:05:48.932
00:14:55.728 : en:00:14:55.728
00:20:51.500 : en:00:20:51.500
00:29:59.673 : en:00:29:59.673
00:38:31.726 : en:00:38:31.726
00:46:13.813 : en:00:46:13.813
00:55:29.034 : en:00:55:29.034
01:06:40.997 : en:01:06:40.997
01:13:58.100 : en:01:13:58.100
01:26:25.472 : en:01:26:25.472
01:36:23.486 : en:01:36:23.486
Скриншоты:

загрузка...
Правила, инструкции, FAQ!!!
Торрент  Добавлен [09 авг 2014, 21:28] Скачать торрент
Скачать торрент
[ Размер 38.96 КБ / Просмотров 13 ]

Статус
Проверен 
 
Размер  7.63 ГБ
Приватный: Нет (DHT включён)
.torrent скачан  0
Как залить торрент? | Как скачать Torrent? | Как смотреть и слушать онлайн?  


     Отправить личное сообщение
   
Страница 1 из 1
Показать сообщения за:  Поле сортировки  
Начать новую тему Ответить на тему

   Похожие торренты   Автор   Ответы   Просмотры   Последнее сообщение 
В этой теме нет новых непрочитанных сообщений. Скачать торрент Проверен Невероятное путешествие мистера Спивета / The Young and Prodigious T.S. Spivet (2013) BDRip [1080p] [VO]

в форуме 720p | 1080p, Размер: 8.29 ГБ, Здоровье: 100%

Anonymous

0
15|2

48
0

09 авг 2014, 21:28

Anonymous Перейти к последнему сообщению

В этой теме нет новых непрочитанных сообщений. Скачать торрент Проверен Невероятное путешествие мистера Спивета / The Young and Prodigious T.S. Spivet (2013) BDRip 1080p от Ash61 | 3D-Video | halfOU | L

в форуме HD-Video в 3D, Размер: 9.65 ГБ, Здоровье: 100%

Anonymous

0
56|25

94
347

21 июн 2014, 23:20

Anonymous Перейти к последнему сообщению

В этой теме нет новых непрочитанных сообщений. Скачать торрент Проверен Невероятное путешествие мистера Спивета / The Young and Prodigious T.S. Spivet (2013) BDRip [1080p] 3D [Вертикальная анаморфная стереопара]

в форуме HD-Video в 3D, Размер: 11.65 ГБ, Здоровье: 100%

Anonymous

0
4|1

133
0

09 авг 2014, 21:28

Anonymous Перейти к последнему сообщению

В этой теме нет новых непрочитанных сообщений. Скачать торрент Проверен Невероятное путешествие мистера Спивета / The Young and Prodigious T.S. Spivet (2013) HDRip | Чистый звук

в форуме Детское, Семейное кино, Размер: 1.46 ГБ, Здоровье: 100%

Гость

0
857|491

187
1445

28 дек 2014, 00:00

Гость Перейти к последнему сообщению

В этой теме нет новых непрочитанных сообщений. Скачать торрент Проверен The Beatles - Magical Mystery Tour / Невероятное Магическое Путешествие [1967, Music, Comedy, Blu-ray]

в форуме Концерты (HD-Video), Размер: 32.49 ГБ, Здоровье: 100%

Anonymous

0
1|0

13
0

23 окт 2016, 18:57

Anonymous Перейти к последнему сообщению



Сейчас этот форум просматривают: нет зарегистрированных пользователей и гости: 1


Вы не можете начинать темы
Вы не можете отвечать на сообщения
Вы не можете редактировать свои сообщения
Вы не можете удалять свои сообщения
Вы не можете добавлять вложения

Перейти:  

!ВНИМАНИЕ!
 Ресурс не предоставляет электронные версии произведений, а занимается лишь коллекционированием и каталогизацией ссылок, присылаемых и публикуемых на форуме нашими читателями. Если вы являетесь правообладателем какого-либо представленного материала и не желаете чтобы ссылка на него находилась в нашем каталоге, свяжитесь с нами и мы незамедлительно удалим её. Файлы для обмена на трекере предоставлены пользователями сайта, и администрация не несёт ответственности за их содержание. Просьба не заливать файлы, защищенные авторскими правами, а также файлы нелегального содержания!