На всех торрентах на трекере установлена скидка на скачивание в размере 100 процентов(а).
 Возможность скачивания торрента НЕ зависит от ограничений при низком ратио, низком аплоаде, требуемом ратио или требуемом аплоаде.


Начать новую тему Ответить на тему
Статистика раздачи
Размер: 4.68 ГБ | Добавлен: 09 авг 2014, 21:27 | Скачали: 0
Сидеров: 0  [0 байт/сек]    Личеров: 0  [0 байт/сек]
Пред. тема | След. тема 

Автор
Сообщение

СообщениеДобавлено: 09 авг 2014, 21:27 

Год выпуска: 2014
Жанр: Комедия, Семейный
Производство: США | Capital Arts Entertainment, Universal Pictures

Описание фильма:
Приключения компании подростков пытающихся собрать деньги для спасения пекарни.

Режиссер: Алекс Замм
Актеры: Дорис Робертс, Грег Джерманн, Лекс Медлин, Валери Эзлинн, Джет Юргенсмейер, Дрю Джастис,
Коннор Берри, Дженна Ортега, Айзиа Фредерикс, Кемден Грэй

Продолжительность: 01:37:43

Перевод: Дублированный (кроме песен)
Вид субтитров: Вшитые, отключаемые
Язык субтитров: Русский, Английский



Дата мировой премьеры: 25 марта 2014

Качество видео: BDRip 720p

Видео: MPEG-4 AVC/H.264, 1280x720 (16:9), 23.976 fps, 4 896 Kbps (0.222 bit/pixel)
Аудио #1: AC-3, 48.0 KHz, 6 ch, 448 Kbps, CBR (Русский, дубляж)
Аудио #2: DTS, 48.0 KHz, 6 ch, 1 510 Kbps, CBR (Английский, оригинал)
Complete name \The_Little_Rascals_Save_the_Day_(2014).BDRip.720p.mkv
Format : Matroska
Format version : Version 2
File size : 4.68 GiB
Duration : 1h 37mn
Overall bit rate : 6 856 Kbps
Movie name : The Little Rascals Save the Day
Encoded date : UTC 2014-05-16 16:03:47
Writing application : mkvmerge v5.8.0 ('No Sleep / Pillow') built on Sep 2 2012 15:37:04
Writing library : libebml v1.2.3 + libmatroska v1.3.0

Video
ID : 1
Format : AVC
Format/Info : Advanced Video Codec
Format profile :
Format settings, CABAC : Yes
Format settings, ReFrames : 9 frames
Codec ID : V_MPEG4/ISO/AVC
Duration : 1h 37mn
Bit rate : 4 896 Kbps
Width : 1 280 pixels
Height : 720 pixels
Display aspect ratio : 16:9
Frame rate mode : Constant
Frame rate : 23.976 fps
Color space : YUV
Chroma subsampling : 4:2:0
Bit depth : 8 bits
Scan type : Progressive
Bits/(Pixel*Frame) : 0.222
Stream size : 3.25 GiB (69%)
Writing library : x264 core 130 r2273 b3065e6
Encoding settings : cabac=1 / ref=9 / deblock=1:-3:-3 / analyse=0x3:0x133 / me=umh / subme=11 / psy=1 / psy_rd=1.05:0.05 / mixed_ref=1 / me_range=32 / chroma_me=1 / trellis=2 / 8x8dct=1 / cqm=0 / deadzone=21,11 / fast_pskip=0 / chroma_qp_offset=-3 / threads=12 / lookahead_threads=2 / sliced_threads=0 / nr=0 / decimate=1 / interlaced=0 / bluray_compat=0 / constrained_intra=0 / bframes=8 / b_pyramid=2 / b_adapt=2 / b_bias=0 / direct=3 / weightb=1 / open_gop=0 / weightp=2 / keyint=250 / keyint_min=23 / scenecut=40 / intra_refresh=0 / rc_lookahead=60 / rc=2pass / mbtree=1 / bitrate=4896 / ratetol=1.0 / qcomp=0.60 / qpmin=0 / qpmax=69 / qpstep=4 / cplxblur=20.0 / qblur=0.5 / ip_ratio=1.40 / aq=1:0.80
Language : English
Default : Yes
Forced : No

Audio #1
ID : 2
Format : AC-3
Format/Info : Audio Coding 3
Mode extension : CM (complete main)
Format settings, Endianness : Big
Codec ID : A_AC3
Duration : 1h 37mn
Bit rate mode : Constant
Bit rate : 448 Kbps
Channel(s) : 6 channels
Channel positions : Front: L C R, Side: L R, LFE
Sampling rate : 48.0 KHz
Bit depth : 16 bits
Compression mode : Lossy
Stream size : 313 MiB (7%)
Title : Дубляж
Language : Russian
Default : Yes
Forced : No

Audio #2
ID : 3
Format : DTS
Format/Info : Digital Theater Systems
Mode : 16
Format settings, Endianness : Big
Codec ID : A_DTS
Duration : 1h 37mn
Bit rate mode : Constant
Bit rate : 1 509 Kbps
Channel(s) : 6 channels
Channel positions : Front: L C R, Side: L R, LFE
Sampling rate : 48.0 KHz
Bit depth : 24 bits
Compression mode : Lossy
Stream size : 1.03 GiB (22%)
Language : English
Default : No
Forced : No

Text #1
ID : 4
Format : UTF-8
Codec ID : S_TEXT/UTF8
Codec ID/Info : UTF-8 Plain Text
Title : Sub
Language : Russian
Default : No
Forced : No

Text #2
ID : 5
Format : UTF-8
Codec ID : S_TEXT/UTF8
Codec ID/Info : UTF-8 Plain Text
Title : Sub
Language : English
Default : No
Forced : No
Скриншоты:



загрузка...
Правила, инструкции, FAQ!!!
Торрент  Добавлен [09 авг 2014, 21:27] Скачать торрент
Скачать торрент
[ Размер 24.21 КБ / Просмотров 3 ]

Статус
Проверен 
 
Размер  4.68 ГБ
Приватный: Нет (DHT включён)
.torrent скачан  0
Как залить торрент? | Как скачать Torrent? | Как смотреть и слушать онлайн?  


     Отправить личное сообщение
   
Страница 1 из 1
Показать сообщения за:  Поле сортировки  
Начать новую тему Ответить на тему

   Похожие торренты   Автор   Ответы   Просмотры   Последнее сообщение 
В этой теме нет новых непрочитанных сообщений. Скачать торрент Маленькие негодяи спасают положение / The Little Rascals Save the Day (Алекс Замм / Alex Zamm) [2014, США, комедия, семейный, HDRip] Dub

в форуме Детское, Семейное кино, Размер: 1.46 ГБ, Здоровье: 100%

Anonymous

0
3|0

64
1

18 май 2014, 09:39

Anonymous Перейти к последнему сообщению

В этой теме нет новых непрочитанных сообщений. Скачать торрент Проверен Петька и Василий Иванович спасают галактику: Перезагрузка / Red Comrades Save the Galaxy: Reloaded (2016) PC | Steam-Rip от Let'sPlay

в форуме Приключения и квесты|я ищу, Размер: 2.83 ГБ, Здоровье: 100%

Anonymous

0
968|347

104
159

19 фев 2016, 18:35

Anonymous Перейти к последнему сообщению

В этой теме нет новых непрочитанных сообщений. Скачать торрент Проверен (Melodic Heavy Metal) Zoltar Speaks - Save As I Save - 2013, MP3, 320 kbps

в форуме Heavy, Power, Progressive (Metal), Размер: 133.15 МБ, Здоровье: 0%

Anonymous

0
0|0

0
0

08 окт 2016, 18:01

Anonymous Перейти к последнему сообщению

В этой теме нет новых непрочитанных сообщений. Скачать торрент Короли аферы / Save Angel Hope (2007) BDRip-AVC | P

в форуме 720p | 1080p, Размер: 2.17 ГБ, Здоровье: 0%

Anonymous

0
0|0

16
0

25 дек 2013, 23:08

Anonymous Перейти к последнему сообщению

В этой теме нет новых непрочитанных сообщений. Скачать торрент Проверен Квартет И | Мексиканские негодяи и не только [2008] [MP3]

в форуме Сатира, юмор, Размер: 173.94 МБ, Здоровье: 100%

Anonymous

0
33|7

85
8

24 сен 2015, 20:44

Anonymous Перейти к последнему сообщению



Сейчас этот форум просматривают: нет зарегистрированных пользователей и гости: 1


Вы не можете начинать темы
Вы не можете отвечать на сообщения
Вы не можете редактировать свои сообщения
Вы не можете удалять свои сообщения
Вы не можете добавлять вложения

Перейти:  

!ВНИМАНИЕ!
 Ресурс не предоставляет электронные версии произведений, а занимается лишь коллекционированием и каталогизацией ссылок, присылаемых и публикуемых на форуме нашими читателями. Если вы являетесь правообладателем какого-либо представленного материала и не желаете чтобы ссылка на него находилась в нашем каталоге, свяжитесь с нами и мы незамедлительно удалим её. Файлы для обмена на трекере предоставлены пользователями сайта, и администрация не несёт ответственности за их содержание. Просьба не заливать файлы, защищенные авторскими правами, а также файлы нелегального содержания!