На всех торрентах на трекере установлена скидка на скачивание в размере 100 процентов(а).
 Возможность скачивания торрента НЕ зависит от ограничений при низком ратио, низком аплоаде, требуемом ратио или требуемом аплоаде.


Начать новую тему Ответить на тему
Статистика раздачи
Размер: 4.73 ГБ | Добавлен: 09 авг 2014, 21:27 | Скачали: 0
Сидеров: 0  [0 байт/сек]    Личеров: 0  [0 байт/сек]
Пред. тема | След. тема 

Автор
Сообщение

СообщениеДобавлено: 09 авг 2014, 21:27 

Год выпуска: 1977
Производство: Columbia Pictures Corporation, Andor Films
Жанр: Фэнтези, Приключения, Семейный

Описание фильма:
Синбад держит путь в землю Чарок для того, чтобы просить руки принцессы Фары у её брата принца Кассима.
Однако, приплыв туда, он узнаёт, что волшебница Зенобия наложила на Кассима проклятие, превратив его в бабуина.
Королева Зенобия сделала это, для того, чтобы калифом смог стать её сын принц Рафи.
Синбад решает восстановить справедливость и вступает в схватку с волшебницей, то и дело принимающей облик дикой тигрицы

Режиссер: Сэм Уонамейкер
Актеры: Патрик Уэйн, Тэрин Пауэр, Маргарет Уайтинг, Джейн Сеймур, Патрик Траутон, Курт Кристиан, Надим Савалха,
Дэмиен Томас, Бруно Барнаби, Бернард Кэй



Дата мировой премьеры: 15 июля 1977

Продолжительность: 01:52:59
Качество видео: BDRip 720p
Перевод: Многоголосый закадровый

Видео: MPEG-4 AVC/H.264, 1280x688 (1.860), 23.976 fps, 4 028 Kbps (0.191 bit/pixel)
Аудио #1: AC-3, 48.0 KHz, 2 ch, 448 Kbps, CBR (Русский, многоголосый закадровый)
Аудио #2: DTS, 48.0 KHz, 6 ch, 1 510 Kbps, CBR (Английский, оригинал)
Видеоряд с оригинальной дорогой от SADPANDA
Русскя дорога взята здесь Синдбад и Глаз Тигра / Sinbad and the Eye of the Tiger (1977) DVD5
Complete name \Sinbad.And.The.Eye.Of.The.Tiger.1977.BDRip.720p.mkv
Format : Matroska
Format version : Version 2
File size : 4.73 GiB
Duration : 1h 52mn
Overall bit rate : 5 988 Kbps
Movie name : Sinbad.And.The.Eye.Of.The.Tiger.1977
Encoded date : UTC 2014-05-01 07:34:45
Writing application : mkvmerge v5.8.0 ('No Sleep / Pillow') built on Sep 2 2012 15:37:04
Writing library : libebml v1.2.3 + libmatroska v1.3.0

Video
ID : 1
Format : AVC
Format/Info : Advanced Video Codec
Format profile :
Format settings, CABAC : Yes
Format settings, ReFrames : 5 frames
Codec ID : V_MPEG4/ISO/AVC
Duration : 1h 52mn
Bit rate : 4 028 Kbps
Width : 1 280 pixels
Height : 688 pixels
Display aspect ratio : 1.85:1
Frame rate mode : Constant
Frame rate : 23.976 fps
Color space : YUV
Chroma subsampling : 4:2:0
Bit depth : 8 bits
Scan type : Progressive
Bits/(Pixel*Frame) : 0.191
Stream size : 3.09 GiB (65%)
Writing library : x264 core 142 r2431 ac76440
Encoding settings : cabac=1 / ref=5 / deblock=1:0:0 / analyse=0x3:0x133 / me=umh / subme=8 / psy=1 / psy_rd=1.00:0.00 / mixed_ref=1 / me_range=16 / chroma_me=1 / trellis=1 / 8x8dct=1 / cqm=0 / deadzone=21,11 / fast_pskip=0 / chroma_qp_offset=-2 / threads=18 / lookahead_threads=3 / sliced_threads=0 / nr=0 / decimate=1 / interlaced=0 / bluray_compat=0 / constrained_intra=0 / bframes=3 / b_pyramid=2 / b_adapt=1 / b_bias=0 / direct=1 / weightb=1 / open_gop=0 / weightp=2 / keyint=250 / keyint_min=23 / scenecut=40 / intra_refresh=0 / rc_lookahead=40 / rc=2pass / mbtree=1 / bitrate=4028 / ratetol=1.0 / qcomp=0.60 / qpmin=0 / qpmax=69 / qpstep=4 / cplxblur=20.0 / qblur=0.5 / ip_ratio=1.40 / aq=1:1.00
Language : English
Default : Yes
Forced : No

Audio #1
ID : 2
Format : AC-3
Format/Info : Audio Coding 3
Mode extension : CM (complete main)
Format settings, Endianness : Big
Codec ID : A_AC3
Duration : 1h 52mn
Bit rate mode : Constant
Bit rate : 448 Kbps
Channel(s) : 2 channels
Channel positions : Front: L R
Sampling rate : 48.0 KHz
Bit depth : 16 bits
Compression mode : Lossy
Stream size : 362 MiB (7%)
Title : Многоголосый закадровый
Language : Russian
Default : Yes
Forced : No

Audio #2
ID : 3
Format : DTS
Format/Info : Digital Theater Systems
Mode : 16
Format settings, Endianness : Big
Codec ID : A_DTS
Duration : 1h 52mn
Bit rate mode : Constant
Bit rate : 1 509 Kbps
Channel(s) : 6 channels
Channel positions : Front: L C R, Side: L R, LFE
Sampling rate : 48.0 KHz
Bit depth : 24 bits
Compression mode : Lossy
Stream size : 1.19 GiB (25%)
Title : Оригинал
Language : English
Default : No
Forced : No

Menu
00:00:00.000 : en:00:00:00.000
00:05:49.182 : en:00:05:49.182
00:13:30.309 : en:00:13:30.309
00:23:15.561 : en:00:23:15.561
00:31:28.637 : en:00:31:28.637
00:40:57.413 : en:00:40:57.413
00:51:02.226 : en:00:51:02.226
01:02:41.299 : en:01:02:41.299
01:15:43.664 : en:01:15:43.664
01:27:07.305 : en:01:27:07.305
01:37:20.710 : en:01:37:20.710
01:51:59.671 : en:01:51:59.671
Скриншоты:

загрузка...
Правила, инструкции, FAQ!!!
Торрент  Добавлен [09 авг 2014, 21:27] Скачать торрент
Скачать торрент
[ Размер 24.38 КБ / Просмотров 18 ]

Статус
Проверен 
 
Размер  4.73 ГБ
Приватный: Нет (DHT включён)
.torrent скачан  0
Как залить торрент? | Как скачать Torrent? | Как смотреть и слушать онлайн?  


     Отправить личное сообщение
   
Страница 1 из 1
Показать сообщения за:  Поле сортировки  
Начать новую тему Ответить на тему

   Похожие торренты   Автор   Ответы   Просмотры   Последнее сообщение 
В этой теме нет новых непрочитанных сообщений. Скачать торрент Проверен Колдун / Sorcerer (1977) BDRip 720p

в форуме 720p | 1080p, Размер: 10.63 ГБ, Здоровье: 64%

Anonymous

0
33|51

42
13

12 ноя 2014, 19:59

Anonymous Перейти к последнему сообщению

В этой теме нет новых непрочитанных сообщений. Скачать торрент Проверен (Heavy Blues Rock / Glam Power) Tiger B.Smith - We're The Tiger Bunch - 1974, FLAC (image+.cue) lossless

в форуме Classic Rock & Hard Rock, Размер: 216.14 МБ, Здоровье: 0%

Anonymous

0
0|0

0
0

05 сен 2016, 20:49

Anonymous Перейти к последнему сообщению

В этой теме нет новых непрочитанных сообщений. Скачать торрент Проверен The Who: At Kilburn 1977 (720p) [2008, Rock, BDRip]

в форуме Концерты (HD-Video), Размер: 8.58 ГБ, Здоровье: 0%

Anonymous

0
0|0

1
0

23 окт 2016, 11:23

Anonymous Перейти к последнему сообщению

В этой теме нет новых непрочитанных сообщений. Скачать торрент Проверен Кошачий глаз / Cat's Eye (1985) BDRip 1080p | P2

в форуме 720p | 1080p, Размер: 6.85 ГБ, Здоровье: 100%

Anonymous

0
3|1

27
86

18 июл 2014, 16:25

Anonymous Перейти к последнему сообщению

В этой теме нет новых непрочитанных сообщений. Скачать торрент Проверен Страсть к вуду / Der Ruf der blonden Göttin (1977) BDRip 720p | A

в форуме 720p | 1080p, Размер: 3.96 ГБ, Здоровье: 0%

Anonymous

0
1|136

44
0

14 ноя 2014, 18:37

Anonymous Перейти к последнему сообщению



Сейчас этот форум просматривают: нет зарегистрированных пользователей и гости: 1


Вы не можете начинать темы
Вы не можете отвечать на сообщения
Вы не можете редактировать свои сообщения
Вы не можете удалять свои сообщения
Вы не можете добавлять вложения

Перейти:  

!ВНИМАНИЕ!
 Ресурс не предоставляет электронные версии произведений, а занимается лишь коллекционированием и каталогизацией ссылок, присылаемых и публикуемых на форуме нашими читателями. Если вы являетесь правообладателем какого-либо представленного материала и не желаете чтобы ссылка на него находилась в нашем каталоге, свяжитесь с нами и мы незамедлительно удалим её. Файлы для обмена на трекере предоставлены пользователями сайта, и администрация не несёт ответственности за их содержание. Просьба не заливать файлы, защищенные авторскими правами, а также файлы нелегального содержания!