На всех торрентах на трекере установлена скидка на скачивание в размере 100 процентов(а).
 Возможность скачивания торрента НЕ зависит от ограничений при низком ратио, низком аплоаде, требуемом ратио или требуемом аплоаде.


Начать новую тему Ответить на тему
Статистика раздачи
Размер: 1.87 ГБ | Добавлен: 09 авг 2014, 21:27 | Скачали: 0
Сидеров: 10  [0 байт/сек]    Личеров: 1  [0 байт/сек]
Пред. тема | След. тема 

Автор
Сообщение

СообщениеДобавлено: 09 авг 2014, 21:27 

Синяя птица / The Blue Bird (1976) DVDRip

Год выпуска: 1976
Жанр: Фэнтези, Приключения, Семейный

Описание фильма:
Написанная в начале прошлого века, забавная и грустная сказка о приключениях двух детей, которые путешествуют в поисках волшебной Синей Птицы. Рассказ этот полон веры в доброту и силу человека, в его победу над еще непознанными, но познаваемыми законами природы.

Режиссер: Джордж Кьюкор /George Cukor
Актеры: Маргарита Терехова, Георгий Вицин, Олег Попов, Надежда Павлова, Элизабет Тейлор, Джейн Фонда, Ава Гарднер, Сисели Тайсон, Роберт Морли, Гарри Эндрюс, Тодд Лукинлэнд, Пэтси Кензит, Уилл Гир, Мона Уошборн

Продолжительность: 01:34:39
Качество видео: DVDRip
Перевод: Дублированный
Язык субтитров: Английские
Вид субтитров: Вшитые



Видеокодек: MPEG-4 AVC/H.264
Битрейт видео: ~2300 Kbps
Размер кадра: 718х556@766x556
Аудиокодек: AC3 5.1
Битрейт аудио: 448 Kbps
Сэмпл: Ссылка
...last pass...

avs4x264.exe: -L x264_64.exe --pass 2 --bitrate 2372 --preset veryslow --profile high --level 4.0 --aq-mode 2 --aq-strength 0.85 --deblock -2:-1 --merange 32 --bframes 14 --no-dct-decimate --qcomp 0.65 --vbv-maxrate 20000 --vbv-bufsize 25000 --subme 11 --no-mbtree --sar 16:15 --stats "F:\Temp\0162.log" --output "F:\Temp\0162.264" "F:\Temp\0162.avs"

raw [info]: 718x556p 16:15 @ 25/1 fps (cfr)
x264 [info]: using SAR=16/15
x264 [info]: using cpu capabilities: MMX2 SSE2Fast LZCNT
x264 [info]: profile High, level 4.0

x264 [info]: frame I:1005 Avg QP:17.53 size: 53960
x264 [info]: frame P:28216 Avg QP:20.75 size: 24063
x264 [info]: frame B:112762 Avg QP:22.72 size: 8432
x264 [info]: consecutive B-frames: 1.5% 2.1% 6.5% 12.4% 8.9% 58.6% 4.7% 1.5% 1.4% 0.6% 0.5% 0.7% 0.2% 0.2% 0.2%
x264 [info]: mb I I16..4: 3.0% 85.9% 11.1%
x264 [info]: mb P I16..4: 0.4% 12.8% 1.1% P16..4: 31.0% 36.1% 15.2% 1.2% 0.1% skip: 2.0%
x264 [info]: mb B I16..4: 0.0% 1.4% 0.1% B16..8: 34.3% 22.2% 3.9% direct: 9.8% skip:28.2% L0:37.2% L1:39.4% BI:23.4%
x264 [info]: 8x8 transform intra:88.6% inter:67.1%
x264 [info]: direct mvs spatial:98.5% temporal:1.5%
x264 [info]: coded y,uvDC,uvAC intra: 93.0% 84.4% 53.3% inter: 37.9% 26.1% 6.8%
x264 [info]: i16 v,h,dc,p: 35% 14% 8% 43%
x264 [info]: i8 v,h,dc,ddl,ddr,vr,hd,vl,hu: 13% 6% 4% 9% 14% 16% 12% 14% 12%
x264 [info]: i4 v,h,dc,ddl,ddr,vr,hd,vl,hu: 17% 5% 3% 8% 15% 17% 12% 13% 10%
x264 [info]: i8c dc,h,v,p: 35% 19% 26% 20%
x264 [info]: Weighted P-Frames: Y:17.5% UV:4.8%
x264 [info]: ref P L0: 38.4% 12.8% 16.9% 6.7% 5.5% 3.8% 3.7% 2.0% 1.9% 1.5% 1.5% 1.3% 1.3% 1.0% 1.1% 0.7%
x264 [info]: ref B L0: 76.8% 10.7% 3.6% 2.0% 1.4% 1.2% 1.0% 0.6% 0.5% 0.5% 0.4% 0.4% 0.4% 0.2% 0.1%
x264 [info]: ref B L1: 95.0% 5.0%
x264 [info]: kb/s:2372.11
Формат : Matroska
Версия формата : Version 2
Размер файла : 1,87 Гбайт
Продолжительность : 1 ч. 34 м.
Общий поток : 2822 Кбит/сек
Название фильма : Синяя птица / The Blue Bird
Дата кодирования : UTC 2014-04-23 12:01:48
Программа кодирования : mkvmerge v5.5.0 ('Healer') built on Apr 24 2012 23:47:03
Библиотека кодирования : libebml v1.2.3 + libmatroska v1.3.0

Видео
Идентификатор : 1
Формат : AVC
Формат/Информация : Advanced Video Codec
Профиль формата :
Параметр CABAC формата : Да
Параметр ReFrames формата : 16 кадров
Идентификатор кодека : V_MPEG4/ISO/AVC
Продолжительность : 1 ч. 34 м.
Битрейт : 2372 Кбит/сек
Ширина : 718 пикселей
Высота : 556 пикселей
Соотношение сторон : 1,378
Соотношение сторон в оригинале : 1,377
Частота кадров : 25,000 кадров/сек
Цветовое пространство : YUV
Субдискретизация насыщенности : 4:2:0
Битовая глубина : 8 бит
Тип развёртки : Прогрессивная
Бит/(Пиксели*Кадры) : 0.238
Размер потока : 1,53 Гбайт (82%)
Заголовок : The Blue Bird_DVDRip_cw
Библиотека кодирования : x264 core 142 r2389 956c8d8
Настройки программы : cabac=1 / ref=16 / deblock=1:-2:-1 / analyse=0x3:0x133 / me=umh / subme=11 / psy=1 / psy_rd=1.00:0.00 / mixed_ref=1 / me_range=32 / chroma_me=1 / trellis=2 / 8x8dct=1 / cqm=0 / deadzone=21,11 / fast_pskip=1 / chroma_qp_offset=-2 / threads=4 / lookahead_threads=1 / sliced_threads=0 / nr=0 / decimate=0 / interlaced=0 / bluray_compat=0 / constrained_intra=0 / bframes=14 / b_pyramid=2 / b_adapt=2 / b_bias=0 / direct=3 / weightb=1 / open_gop=0 / weightp=2 / keyint=250 / keyint_min=25 / scenecut=40 / intra_refresh=0 / rc_lookahead=60 / rc=2pass / mbtree=0 / bitrate=2372 / ratetol=1.0 / qcomp=0.65 / qpmin=0 / qpmax=69 / qpstep=4 / cplxblur=20.0 / qblur=0.5 / vbv_maxrate=20000 / vbv_bufsize=25000 / nal_hrd=none / filler=0 / ip_ratio=1.40 / pb_ratio=1.30 / aq=2:0.85
Язык : Russian
Default : Да
Forced : Нет

Аудио
Идентификатор : 2
Формат : AC-3
Формат/Информация : Audio Coding 3
Расширение режима : CM (complete main)
Параметр Endianness формата : Big
Идентификатор кодека : A_AC3
Продолжительность : 1 ч. 34 м.
Вид битрейта : Постоянный
Битрейт : 448 Кбит/сек
Каналы : 6 каналов
Расположение каналов : Front: L C R, Side: L R, LFE
Частота : 48,0 КГц
Битовая глубина : 16 бит
Метод сжатия : С потерями
Размер потока : 303 Мбайт (16%)
Язык : Russian
Default : Да
Forced : Нет

Текст
Идентификатор : 3
Формат : UTF-8
Идентификатор кодека : S_TEXT/UTF8
Идентификатор кодека/Информация : UTF-8 Plain Text
Заголовок : RUSCICO
Язык : English
Default : Да
Forced : Нет
Скриншоты:
загрузка...
Правила, инструкции, FAQ!!!
Торрент  Добавлен [09 авг 2014, 21:27] Скачать торрент
Скачать торрент
[ Размер 19.36 КБ / Просмотров 5 ]

Статус
Проверен 
 
Размер  1.87 ГБ
Приватный: Нет (DHT включён)
.torrent скачан  0
Как залить торрент? | Как скачать Torrent? | Как смотреть и слушать онлайн?  


     Отправить личное сообщение
   
Страница 1 из 1
Показать сообщения за:  Поле сортировки  
Начать новую тему Ответить на тему

   Похожие торренты   Автор   Ответы   Просмотры   Последнее сообщение 
В этой теме нет новых непрочитанных сообщений. Скачать торрент Проверен Самойлова Елена - Синяя птица [Marta07 (ЛИ), 2013 г., 128 kbps, MP3]

в форуме Российская фантастика, фэнтези, мистика, ужасы, фанфики, Размер: 773.04 МБ, Здоровье: 0%

Anonymous

0
0|0

2
0

10 сен 2016, 14:56

Anonymous Перейти к последнему сообщению

В этой теме нет новых непрочитанных сообщений. Скачать торрент Проверен Гончарова Галина - Синяя птица счастья [Ведьма (ЛИ), 2015 г., 192 kbps, MP3]

в форуме Российская фантастика, фэнтези, мистика, ужасы, фанфики, Размер: 129.35 МБ, Здоровье: 0%

Anonymous

0
0|0

3
0

10 сен 2016, 15:43

Anonymous Перейти к последнему сообщению

В этой теме нет новых непрочитанных сообщений. Скачать торрент Проверен Самойлова Елена - Синяя птица 2, Чужой трон [Marta07, (ЛИ), 2013 г., 128 kbps, MP3]

в форуме Российская фантастика, фэнтези, мистика, ужасы, фанфики, Размер: 789.02 МБ, Здоровье: 0%

Anonymous

0
0|0

2
0

10 сен 2016, 14:56

Anonymous Перейти к последнему сообщению

В этой теме нет новых непрочитанных сообщений. Скачать торрент Проверен Самойлова Елена - Синяя птица 3, Паутина судеб [Marta07, (ЛИ), 2013 г., 128 kbps, MP3]

в форуме Российская фантастика, фэнтези, мистика, ужасы, фанфики, Размер: 1.05 ГБ, Здоровье: 0%

Anonymous

0
0|0

1
0

10 сен 2016, 15:48

Anonymous Перейти к последнему сообщению

В этой теме нет новых непрочитанных сообщений. Скачать торрент Проверен [BEL] (hard-rock, instrumental, баян) Гурзуф / Егор Забелов - несуществующее кино (2007) + O.S.T. - Синяя птица, OGG Vorbis, mp3

в форуме Русский Рок, Размер: 256.67 МБ, Здоровье: 100%

Anonymous

0
3|1

9
0

23 авг 2016, 10:27

Anonymous Перейти к последнему сообщению



Сейчас этот форум просматривают: нет зарегистрированных пользователей и гости: 1


Вы не можете начинать темы
Вы не можете отвечать на сообщения
Вы не можете редактировать свои сообщения
Вы не можете удалять свои сообщения
Вы не можете добавлять вложения

Перейти:  

!ВНИМАНИЕ!
 Ресурс не предоставляет электронные версии произведений, а занимается лишь коллекционированием и каталогизацией ссылок, присылаемых и публикуемых на форуме нашими читателями. Если вы являетесь правообладателем какого-либо представленного материала и не желаете чтобы ссылка на него находилась в нашем каталоге, свяжитесь с нами и мы незамедлительно удалим её. Файлы для обмена на трекере предоставлены пользователями сайта, и администрация не несёт ответственности за их содержание. Просьба не заливать файлы, защищенные авторскими правами, а также файлы нелегального содержания!