На всех торрентах на трекере установлена скидка на скачивание в размере 100 процентов(а).
 Возможность скачивания торрента НЕ зависит от ограничений при низком ратио, низком аплоаде, требуемом ратио или требуемом аплоаде.


Начать новую тему Ответить на тему
Статистика раздачи
Размер: 9.27 ГБ | Добавлен: 09 авг 2014, 21:26 | Скачали: 2
Сидеров: 1  [0 байт/сек]    Личеров: 3  [0 байт/сек]
Пред. тема | След. тема 

Автор
Сообщение

СообщениеДобавлено: 09 авг 2014, 21:26 

Страна: США
Год выпуска: 1964
Жанр: Комедия, Музыкальный, Фэнтези

Описание фильма:
Семейство Бенкс озабоченно поисками няни для своих детей. И как это бывает только в сказке, она появилась прямо из воздуха, прекрасная, ни на кого не похожая. Как раз такая, какую мечтали бы иметь в своем доме всякие любящие родители.

У неё не просто цветущий вид. Она непросто лучше всех умеет готовить, ходить по магазинам, одеваться, танцевать и воспитывать детей. Это всё лишь элементы, лишь составляющие. Нет, тут нечто большее — она именно совершенна, именно лишена недостатков, ибо она — сказочная. Как же не влюбиться в такую…

Режиссер: Роберт Стивенсон
Актеры: Джули Эндрюс, Дик Ван Дайк, Дэвид Томлинсон, Глинис Джонс, Гермиона Бадделей, Рита Шоу, Карен Дотрис, Мэттью Гарбер, Эльза Ланчестер, Артур Тричер

Продолжительность: 02:19:06
Качество видео: BDRip
Перевод: Дублированный + Многоголосый, закадровый + Многоголосый, закадровый (украинский)
Язык субтитров: русские и английские (встроенные, отключаемые)



Дата мировой премьеры: 27 августа 1964

Видеокодек: MPEG-4 AVC/H.264
Битрейт видео: ~6700 kbps avg
Размер кадра: 1194x720
Аудио:
#1: Русский: 48 kHz/16-bit, AC3, 3/2 (L,C,R,l,r) + LFE ch, ~640.00 kbps avg |Дубляж, Blu-ray|
#2: Русский: 48 kHz/16-bit, AC3, 3/2 (L,C,R,l,r) + LFE ch, ~384.00 kbps avg |Многоголосый закадровый|
#3: Украинский: 48 kHz/16-bit, AC3, 2/0 (L,R) ch, ~192.00 kbps avg |Многоголосый закадровый, Новий канал|
#4: Английский: 48 kHz/24-bit, DTS, 3/2 (L,C,R,l,r) + LFE ch, ~1509.00 kbps avg
#5: Английский: 48 kHz/16-bit, AC3, 2/0 (L,R) ch, ~192.00 kbps avg |Commentary With Julie Andrews, Karen Dotrice, Richard Sherman, Robert Sherman & Dick Van Dyke|

Скриншоты:


1935 год. Памела Трэверс выпустила в свет странную и необычную книгу, во многом похожую на «Алису в стране чудес», наполненную английским юмором, но тем не менее главная героиня слишком грубая и замкнутая, а потому понравится далеко не всем.

1938 год. По просьбе дочерей, знаменитый мультипликатор У. Дисней просит права на экранизацию у П. Трэверс. Однако та отказалась и только в 1964 году согласилась (об этом скоро покажут фильм «Спасти мистера Бэнкса»)

В сюжете тесно переплетены главы книги. Неудачливый художник Берт — эпизодический персонаж книги, в фильме это весёлый, бодрый, неунывающий мастер на все руки, похожий на Чарли Чаплина. В фильме он играет чуть ли не главную роль -он (не без помощи Мэри Поппинс, конечно) суме «спасти мистера Бэнкса».

В сюжете фильма, в отличие от книги, есть довольно чёткая мораль. Действительно, на что потратить два пенса (для нас -пять рублей) — вполне маленькую и ничтожную монетку? На сигареты, на коробок спичек — на то, что мы попользовавшись, выкинем. А как насчёт старушки в метро, у которой сын от рака умирает? Пройдём, как будто не заметив. Если так — то сейчас же посмотрите этот фильм и вы измените отношение тем, кто нуждается в вашей помощи. А если вы работаете в банке и совсем не играете с детьми — тем более.

Лучшее семейное кино всех времён и народов.
(с) Let it Grow
Код:
Код:
Общее
Уникальный идентификатор                 : 197064867098745913534383669612159934068 (0x9441501725FDA26AAE824BE9FC1F9E74)
Полное имя                               : F:\films\Mary.Poppins.1964.720p.mkv
Формат                                   : Matroska
Версия формата                           : Version 2
Размер файла                             : 9,27 Гбайт
Продолжительность                        : 2 ч. 19 м.
Общий поток                              : 9541 Кбит/сек
Название фильма                          : Мэри Поппинс / Mary Poppins (1964)
Дата кодирования                         : UTC 2014-03-21 12:06:52
Программа кодирования                    : mkvmerge v5.8.0 ('No Sleep / Pillow') built on Sep  2 2012 15:37:04
Библиотека кодирования                   : libebml v1.2.3 + libmatroska v1.3.0
Attachment                               : Yes

Видео
Идентификатор                            : 1
Формат                                   : AVC
Формат/Информация                        : Advanced Video Codec
Профиль формата                          :
Параметр CABAC формата                   : Да
Параметр ReFrames формата                : 9 кадров
Идентификатор кодека                     : V_MPEG4/ISO/AVC
Продолжительность                        : 2 ч. 19 м.
Битрейт                                  : 6435 Кбит/сек
Ширина                                   : 1194 пикселя
Высота                                   : 720 пикселей
Соотношение сторон                       : 1,658
Режим частоты кадров                     : Постоянный
Частота кадров                           : 23,976 кадра/сек
Цветовое пространство                    : YUV
Субдискретизация насыщенности            : 4:2:0
Битовая глубина                          : 8 бит
Тип развёртки                            : Прогрессивная
Бит/(Пиксели*Кадры)                      : 0.312
Размер потока                            : 6,25 Гбайт (67%)
Заголовок                                : Release for HDCLUB [by N1NT3NDO]
Библиотека кодирования                   : x264 core 142 r2409+42 04be48a tMod [8-bit@4:2:0 X86_64]
Настройки программы                      : cabac=1 / ref=9 / deblock=1:-3:-3 / analyse=0x3:0x133 / me=umh / subme=11 / psy=1 / fade_compensate=0.00 / psy_rd=1.05:0.00 / mixed_ref=1 / me_range=32 / chroma_me=1 / trellis=2 / 8x8dct=1 / cqm=0 / deadzone=21,11 / fast_pskip=0 / chroma_qp_offset=-2 / threads=12 / lookahead_threads=3 / sliced_threads=0 / nr=0 / decimate=1 / interlaced=0 / bluray_compat=0 / constrained_intra=0 / fgo=0 / bframes=10 / b_pyramid=2 / b_adapt=2 / b_bias=0 / direct=1 / weightb=1 / open_gop=0 / weightp=2 / keyint=240 / keyint_min=23 / scenecut=40 / intra_refresh=0 / rc_lookahead=80 / rc=crf / mbtree=0 / crf=19.0000 / qcomp=0.60 / qpmin=0:0:0 / qpmax=69:69:69 / qpstep=4 / vbv_maxrate=50000 / vbv_bufsize=62500 / crf_max=0.0 / nal_hrd=none / filler=0 / ip_ratio=1.40 / pb_ratio=1.30 / aq=2:1.00 / aq-sensitivity=10.00 / aq-factor=1.00:1.00:1.00 / aq2=0 / aq3=0
Язык                                     : English
Default                                  : Да
Forced                                   : Нет

Аудио #1
Идентификатор                            : 2
Формат                                   : AC-3
Формат/Информация                        : Audio Coding 3
Расширение режима                        : CM (complete main)
Параметр Endianness формата              : Big
Идентификатор кодека                     : A_AC3
Продолжительность                        : 2 ч. 19 м.
Вид битрейта                             : Постоянный
Битрейт                                  : 640 Кбит/сек
Каналы                                   : 6 каналов
Расположение каналов                     : Front: L C R, Side: L R, LFE
Частота                                  : 48,0 КГц
Битовая глубина                          : 16 бит
Метод сжатия                             : С потерями
Размер потока                            : 637 Мбайт (7%)
Заголовок                                : Дубляж, Blu-ray [48 kHz/16-bit, AC3, 3/2 (L,C,R,l,r) + LFE ch, ~640.00 kbps avg]
Язык                                     : Russian
Default                                  : Да
Forced                                   : Нет

Аудио #2
Идентификатор                            : 3
Формат                                   : AC-3
Формат/Информация                        : Audio Coding 3
Расширение режима                        : CM (complete main)
Параметр Endianness формата              : Big
Идентификатор кодека                     : A_AC3
Продолжительность                        : 2 ч. 19 м.
Вид битрейта                             : Постоянный
Битрейт                                  : 384 Кбит/сек
Каналы                                   : 6 каналов
Расположение каналов                     : Front: L C R, Side: L R, LFE
Частота                                  : 48,0 КГц
Битовая глубина                          : 16 бит
Метод сжатия                             : С потерями
Размер потока                            : 382 Мбайт (4%)
Заголовок                                : Многоголосый закадровый [48 kHz/16-bit, AC3, 3/2 (L,C,R,l,r) + LFE ch, ~384.00 kbps avg]
Язык                                     : Russian
Default                                  : Нет
Forced                                   : Нет

Аудио #3
Идентификатор                            : 4
Формат                                   : AC-3
Формат/Информация                        : Audio Coding 3
Расширение режима                        : CM (complete main)
Параметр Endianness формата              : Big
Идентификатор кодека                     : A_AC3
Продолжительность                        : 2 ч. 19 м.
Вид битрейта                             : Постоянный
Битрейт                                  : 192 Кбит/сек
Каналы                                   : 2 канала
Расположение каналов                     : Front: L R
Частота                                  : 48,0 КГц
Битовая глубина                          : 16 бит
Метод сжатия                             : С потерями
Размер потока                            : 191 Мбайт (2%)
Заголовок                                : Многоголосый закадровый, Новий канал [48 kHz/16-bit, AC3, 2/0 (L,R) ch, ~192.00 kbps avg]
Язык                                     : Ukrainian
Default                                  : Нет
Forced                                   : Нет

Аудио #4
Идентификатор                            : 5
Формат                                   : DTS
Формат/Информация                        : Digital Theater Systems
Режим                                    : 16
Параметр Endianness формата              : Big
Идентификатор кодека                     : A_DTS
Продолжительность                        : 2 ч. 19 м.
Вид битрейта                             : Постоянный
Битрейт                                  : 1509 Кбит/сек
Каналы                                   : 6 каналов
Расположение каналов                     : Front: L C R, Side: L R, LFE
Частота                                  : 48,0 КГц
Битовая глубина                          : 24 бит
Метод сжатия                             : С потерями
Размер потока                            : 1,47 Гбайт (16%)
Заголовок                                : Оригинал [48 kHz/24-bit, DTS, 3/2 (L,C,R,l,r) + LFE ch, ~1509.00 kbps avg]
Язык                                     : English
Default                                  : Нет
Forced                                   : Нет

Аудио #5
Идентификатор                            : 6
Формат                                   : AC-3
Формат/Информация                        : Audio Coding 3
Расширение режима                        : CM (complete main)
Параметр Endianness формата              : Big
Идентификатор кодека                     : A_AC3
Продолжительность                        : 2 ч. 19 м.
Вид битрейта                             : Постоянный
Битрейт                                  : 192 Кбит/сек
Каналы                                   : 2 канала
Расположение каналов                     : Front: L R
Частота                                  : 48,0 КГц
Битовая глубина                          : 16 бит
Метод сжатия                             : С потерями
Размер потока                            : 191 Мбайт (2%)
Заголовок                                : Commentary With Julie Andrews, Karen Dotrice, Richard Sherman, Robert Sherman & Dick Van Dyke [48 kHz/16-bit, AC3, 2/0 (L,R) ch, ~192.00 kbps avg]
Язык                                     : English
Default                                  : Нет
Forced                                   : Нет

Текст #1
Идентификатор                            : 7
Формат                                   : UTF-8
Идентификатор кодека                     : S_TEXT/UTF8
Идентификатор кодека/Информация          : UTF-8 Plain Text
Заголовок                                : Russian
Язык                                     : Russian
Default                                  : Нет
Forced                                   : Нет

Текст #2
Идентификатор                            : 8
Формат                                   : UTF-8
Идентификатор кодека                     : S_TEXT/UTF8
Идентификатор кодека/Информация          : UTF-8 Plain Text
Заголовок                                : English
Язык                                     : English
Default                                  : Нет
Forced                                   : Нет

Текст #3
Идентификатор                            : 9
Формат                                   : UTF-8
Идентификатор кодека                     : S_TEXT/UTF8
Идентификатор кодека/Информация          : UTF-8 Plain Text
Заголовок                                : English (SDH)
Язык                                     : English
Default                                  : Нет
Forced                                   : Нет

Меню
00:00:00.000                             : :Chapter 01
00:05:54.145                             : :Chapter 02
00:08:56.702                             : :Chapter 03
00:12:37.506                             : :Chapter 04
00:18:36.865                             : :Chapter 05
00:22:57.667                             : :Chapter 06
00:31:39.147                             : :Chapter 07
00:36:08.875                             : :Chapter 08
00:41:37.203                             : :Chapter 09
00:47:21.338                             : :Chapter 10
00:56:50.865                             : :Chapter 11
01:02:03.553                             : :Chapter 12
01:09:32.585                             : :Chapter 13
01:19:43.403                             : :Chapter 14
01:23:55.030                             : :Chapter 15
01:30:39.142                             : :Chapter 16
01:39:09.777                             : :Chapter 17
01:44:31.139                             : :Chapter 18
01:47:35.991                             : :Chapter 19
01:56:46.541                             : :Chapter 20
02:05:30.022                             : :Chapter 21
02:13:28.208                             : :Chapter 22
02:16:29.347                             : :Chapter 23
02:17:45.423                             : :Chapter 24
загрузка...
Правила, инструкции, FAQ!!!
Торрент  Добавлен [09 авг 2014, 21:26] Скачать торрент
Скачать торрент
[ Размер 23.97 КБ / Просмотров 9 ]

Статус
Проверен 
 
Размер  9.27 ГБ
Приватный: Нет (DHT включён)
.torrent скачан  2
Как залить торрент? | Как скачать Torrent? | Как смотреть и слушать онлайн?  


     Отправить личное сообщение
   
Страница 1 из 1
Показать сообщения за:  Поле сортировки  
Начать новую тему Ответить на тему

   Похожие торренты   Автор   Ответы   Просмотры   Последнее сообщение 
В этой теме нет новых непрочитанных сообщений. Скачать торрент Проверен Мэри Поппинс / Mary Poppins (1964) DVDRip

в форуме Детское, Семейное кино, Размер: 1.37 ГБ, Здоровье: 0%

Anonymous

0
0|0

106
0

09 авг 2014, 21:27

Anonymous Перейти к последнему сообщению

В этой теме нет новых непрочитанных сообщений. Скачать торрент Проверен Мэри Ком / Mary Kom (2014) BDRip 720p

в форуме 720p | 1080p, Размер: 5.05 ГБ, Здоровье: 100%

Anonymous

0
48|9

43
338

28 окт 2014, 19:37

Anonymous Перейти к последнему сообщению

В этой теме нет новых непрочитанных сообщений. Скачать торрент Проверен Все без ума от Мэри / There's Something About Mary (1998) BDRip | Theatrical cut

в форуме Комедии, Размер: 2.18 ГБ, Здоровье: 32%

Anonymous

0
21|65

43
22

16 май 2015, 21:35

Anonymous Перейти к последнему сообщению

В этой теме нет новых непрочитанных сообщений. Скачать торрент Проверен Мэри Поппинс, до свидания (Леонид Квинихидзе) [1983, сказка, музыкальный, DVDRip]

в форуме Детское, Семейное кино, Размер: 1.09 ГБ, Здоровье: 100%

Anonymous

0
34|11

22
0

11 апр 2016, 23:36

Anonymous Перейти к последнему сообщению

В этой теме нет новых непрочитанных сообщений. Скачать торрент Проверен Памела Трэверс "Мэри Поппинс возвращается" [Е.Афанасьева, 192 кбит/с]

в форуме Детские литература, Размер: 530.42 МБ, Здоровье: 100%

Anonymous

0
191|9

99
0

23 фев 2015, 11:25

Anonymous Перейти к последнему сообщению



Сейчас этот форум просматривают: нет зарегистрированных пользователей и гости: 1


Вы не можете начинать темы
Вы не можете отвечать на сообщения
Вы не можете редактировать свои сообщения
Вы не можете удалять свои сообщения
Вы не можете добавлять вложения

Перейти:  

!ВНИМАНИЕ!
 Ресурс не предоставляет электронные версии произведений, а занимается лишь коллекционированием и каталогизацией ссылок, присылаемых и публикуемых на форуме нашими читателями. Если вы являетесь правообладателем какого-либо представленного материала и не желаете чтобы ссылка на него находилась в нашем каталоге, свяжитесь с нами и мы незамедлительно удалим её. Файлы для обмена на трекере предоставлены пользователями сайта, и администрация не несёт ответственности за их содержание. Просьба не заливать файлы, защищенные авторскими правами, а также файлы нелегального содержания!