На всех торрентах на трекере установлена скидка на скачивание в размере 100 процентов(а).
 Возможность скачивания торрента НЕ зависит от ограничений при низком ратио, низком аплоаде, требуемом ратио или требуемом аплоаде.


Начать новую тему Ответить на тему
Статистика раздачи
Размер: 1.46 ГБ | Добавлен: 18 май 2014, 09:39 | Скачали: 1
Сидеров: 3  [0 байт/сек]    Личеров: 0  [0 байт/сек]
Пред. тема | След. тема 

Автор
Сообщение

СообщениеДобавлено: 18 май 2014, 09:39 

Маленькие негодяи спасают положение / The Little Rascals Save the Day

Страна: США
Жанр: комедия, семейный
Год выпуска: 2014
Продолжительность: 01:37:50

Перевод: Профессиональный (дублированный) лицензия
Cубтитры: нет
Оригинальная аудиодорожка: нет

Режиссер: Алекс Замм / Alex Zamm

В ролях: Дорис Робертс, Грег Джерманн, Лекс Медлин, Валери Эзлинн, Джет Юргенсмейер, Дрю Джастис, Коннор Берри, Дженна Ортега, Айзиа Фредерикс, Кемден Грэй

Описание: «Маленькие негодяи» — серия комедийных фильмов о группе соседских мальчиков и девочек и об их приключениях вместе.

Доп. информация:
Kinopoisk
IMDB
Sample

Качество видео: HDRip
Формат видео: AVI

Видео: Xvid 720x400 23.976fps 1 590 Kbps
Аудио: Dolby AC3 48000Hz 6ch 448kbpsMediaInfo
General
Complete name : D:\The.Little.Rascals.Save.the.Day.2014.HDRip.avi
Format : AVI
Format/Info : Audio Video Interleave
File size : 1.46 GiB
Duration : 1h 37mn
Overall bit rate : 2 132 Kbps
Writing application : VirtualDubMod 1.5.10.2 (build 2540/release)
Writing library : VirtualDubMod build 2540/release

Video
ID : 0
Format : MPEG-4 Visual
Format profile : Advanced Simple@L5
Format settings, BVOP : Yes
Format settings, QPel : No
Format settings, GMC : No warppoints
Format settings, Matrix : Custom
Codec ID : XVID
Codec ID/Hint : XviD
Duration : 1h 37mn
Bit rate : 1 590 Kbps
Width : 720 pixels
Height : 400 pixels
Display aspect ratio : 16:9
Frame rate : 23.976 fps
Color space : YUV
Chroma subsampling : 4:2:0
Bit depth : 8 bits
Scan type : Progressive
Compression mode : Lossy
Bits/(Pixel*Frame) : 0.230
Stream size : 1.09 GiB (75%)
Writing library : XviD 1.2.1 (UTC 2008-12-04)

Audio
ID : 1
Format : AC-3
Format/Info : Audio Coding 3
Mode extension : CM (complete main)
Format settings, Endianness : Big
Codec ID : 2000
Duration : 1h 37mn
Bit rate mode : Constant
Bit rate : 448 Kbps
Channel count : 6 channels
Channel positions : Front: L C R, Side: L R, LFE
Sampling rate : 48.0 KHz
Bit depth : 16 bits
Compression mode : Lossy
Stream size : 313 MiB (21%)
Alignment : Split accross interleaves
Скриншот c названием фильма
Скриншоты
загрузка...
Правила, инструкции, FAQ!!!
Торрент  Добавлен [18 май 2014, 09:39] Скачать торрент
Скачать торрент
[ Размер 15.17 КБ / Просмотров 8 ]

Статус  
 
Размер  1.46 ГБ
Приватный: Нет (DHT включён)
.torrent скачан  1
Как залить торрент? | Как скачать Torrent? | Как смотреть и слушать онлайн?  


     Отправить личное сообщение
   
Страница 1 из 1
Показать сообщения за:  Поле сортировки  
Начать новую тему Ответить на тему

   Похожие торренты   Автор   Ответы   Просмотры   Последнее сообщение 
В этой теме нет новых непрочитанных сообщений. Скачать торрент Проверен Маленькие негодяи спасают положение / The Little Rascals Save the Day (2014) BDRip [720p]

в форуме Детское, Семейное кино, Размер: 4.68 ГБ, Здоровье: 0%

Anonymous

0
0|0

41
0

09 авг 2014, 21:27

Anonymous Перейти к последнему сообщению

В этой теме нет новых непрочитанных сообщений. Скачать торрент Проверен Петька и Василий Иванович спасают галактику: Перезагрузка / Red Comrades Save the Galaxy: Reloaded (2016) PC | Steam-Rip от Let'sPlay

в форуме Приключения и квесты|я ищу, Размер: 2.83 ГБ, Здоровье: 100%

Anonymous

0
968|347

103
159

19 фев 2016, 18:35

Anonymous Перейти к последнему сообщению

В этой теме нет новых непрочитанных сообщений. Скачать торрент Знамение / Knowing (Алекс Пройас / Alex Proyas) [2009 г., Мистический триллер, фантастика, HDRip] MVO (Киномания)

в форуме Триллеры, Размер: 1.45 ГБ, Здоровье: 100%

Anonymous

0
56|19

33
0

04 фев 2014, 21:24

Anonymous Перейти к последнему сообщению

В этой теме нет новых непрочитанных сообщений. Скачать торрент Проверен [MULT] Лего. Фильм / The Lego Movie (Фил Лорд / Phil Lord, Кристофер Миллер / Christopher Miller) [2014, мультфильм, фэнтези, комедия, приключения, семейный, HDRip] [MP4, 640x] [iTunes Russia]

в форуме Видео для смартфонов и КПК, Размер: 584.28 МБ, Здоровье: 100%

Anonymous

0
56|19

91
0

02 авг 2014, 16:54

Anonymous Перейти к последнему сообщению

В этой теме нет новых непрочитанных сообщений. Скачать торрент Кот / Кот в шляпе / The Cat in the Hat / Dr. Seuss' The Cat in the Hat (Бо Уэлш / Bo Welch) [2003, США, фэнтези, комедия, приключения, семейный, HDRip] Dub

в форуме Фантастика, Фэнтези, Размер: 749.26 МБ, Здоровье: 100%

Anonymous

0
25|8

68
0

25 апр 2014, 08:52

Anonymous Перейти к последнему сообщению



Сейчас этот форум просматривают: нет зарегистрированных пользователей и гости: 1


Вы не можете начинать темы
Вы не можете отвечать на сообщения
Вы не можете редактировать свои сообщения
Вы не можете удалять свои сообщения
Вы не можете добавлять вложения

Перейти:  

!ВНИМАНИЕ!
 Ресурс не предоставляет электронные версии произведений, а занимается лишь коллекционированием и каталогизацией ссылок, присылаемых и публикуемых на форуме нашими читателями. Если вы являетесь правообладателем какого-либо представленного материала и не желаете чтобы ссылка на него находилась в нашем каталоге, свяжитесь с нами и мы незамедлительно удалим её. Файлы для обмена на трекере предоставлены пользователями сайта, и администрация не несёт ответственности за их содержание. Просьба не заливать файлы, защищенные авторскими правами, а также файлы нелегального содержания!