На всех торрентах на трекере установлена скидка на скачивание в размере 100 процентов(а).
 Возможность скачивания торрента НЕ зависит от ограничений при низком ратио, низком аплоаде, требуемом ратио или требуемом аплоаде.


Начать новую тему Ответить на тему
Статистика раздачи
Размер: 1.46 ГБ | Добавлен: 29 апр 2014, 13:54 | Скачали: 1
Сидеров: 2  [0 байт/сек]    Личеров: 4  [0 байт/сек]
Пред. тема | След. тема 

Автор
Сообщение

СообщениеДобавлено: 29 апр 2014, 13:54 

Баллада о Люси Уиппл / The Ballad of Lucy Whipple

Страна: США
Жанр: Драма, семейный, вестерн
Год выпуска: 2001
Продолжительность: 01:27:04

Перевод: Профессиональный (многоголосый закадровый)
Cубтитры: нет
Режиссер: Джереми Каган / Jeremy Kagan

В ролях: Гленн Клоуз, Джена Мэлоун, Брюс МакГилл, Мит Лоуф, Хлоя Уэбб, Оливия Бернетт, Деннис Кристофер, Джуди Голд, Майкл Уэлш, Энди Гаррисон, Уилфорд Бримли, Роберт Пасторелли, Далин Кристиансен, Илэйн Каган, Селеста Лири, Дэвид Стивенс, Натан Стивенс

Описание: Под влиянием «золотой лихорадки» Арвелла Уиппл решает перевезти свое семейство из Массачусетса в городок Лаки Диггинс в Калифорнии. Ее старшая дочь-интеллектуалка Калифорния Морнинг Уиппл категорически против переезда.
В знак протеста она даже меняет свое «говорящее» имя. Вынужденная поддаться уговорам матери, девушка упорно продолжает мечтать о возвращении в родной город. Но когда наступает момент выбора — остаться или уехать, ее решение удивляет всех, и даже ее саму.

Доп. информация: За предоставленный рип благодарим Ledy_X
"Спасибы" просьба ПИСАТЬ в теме, тем самым вы продлеваете жизнь раздаче.

Релиз

Качество видео: HDTVRip [Исходник 1080i]
Формат видео: AVI

Видео: 720x400 (1.80:1), 25 fps, XviD build 50 ~2201 kbps avg, 0.30 bit/pixel
Аудио: 48 kHz, AC3 Dolby Digital, 2/0 (L,R) ch, ~192 kbpsMediaInfo
Баллада о Люси Уиппл - The Ballad of Lucy Whipple [Rip by Ledy_X].avi
Format : AVI
Format/Info : Audio Video Interleave
File size : 1.46 GiB
Duration : 1h 27mn
Overall bit rate : 2 403 Kbps
Movie name : Баллада о Люси Уиппл - The Ballad of Lucy Whipple [Rip by Ledy_X]
Director : Rip by Ledy_X
Writing application : VirtualDubMod 1.5.10.2 (build 2540/release)
Copyright : Edich2
Comment : RuTracker.org

Video
ID : 0
Format : MPEG-4 Visual
Format profile : Advanced Simple@L5
Format settings, BVOP : 1
Format settings, QPel : No
Format settings, GMC : No warppoints
Format settings, Matrix : Default (MPEG)
Codec ID : DX50
Codec ID/Hint : DivX 5
Duration : 1h 27mn
Bit rate : 2 202 Kbps
Width : 720 pixels
Height : 400 pixels
Display aspect ratio : 16:9
Frame rate : 25.000 fps
Color space : YUV
Chroma subsampling : 4:2:0
Bit depth : 8 bits
Scan type : Progressive
Compression mode : Lossy
Bits/(Pixel*Frame) : 0.306
Stream size : 1.34 GiB (92%)
Writing library : XviD 1.2.1 (UTC 2008-12-04)

Audio
ID : 1
Format : AC-3
Format/Info : Audio Coding 3
Mode extension : CM (complete main)
Format settings, Endianness : Big
Codec ID : 2000
Duration : 1h 26mn
Bit rate mode : Constant
Bit rate : 192 Kbps
Channel count : 2 channels
Channel positions : Front: L R
Sampling rate : 48.0 KHz
Bit depth : 16 bits
Compression mode : Lossy
Delay relative to video : 4ms
Stream size : 119 MiB (8%)
Alignment : Split accross interleaves
Interleave, duration : 40 ms (1.00 video frame)
Interleave, preload duration : 500 ms
Скриншоты




загрузка...
Правила, инструкции, FAQ!!!
Торрент  Добавлен [29 апр 2014, 13:54] Скачать торрент
Скачать торрент
[ Размер 15.17 КБ / Просмотров 13 ]

Статус  
 
Размер  1.46 ГБ
Приватный: Нет (DHT включён)
.torrent скачан  1
Как залить торрент? | Как скачать Torrent? | Как смотреть и слушать онлайн?  


     Отправить личное сообщение
   
Страница 1 из 1
Показать сообщения за:  Поле сортировки  
Начать новую тему Ответить на тему

   Похожие торренты   Автор   Ответы   Просмотры   Последнее сообщение 
В этой теме нет новых непрочитанных сообщений. Скачать торрент Проверен Kот Гpом и зaколдoванный дoм в 3Д / Тhe Ноuse of Мagiс 3D (Джереми Дегрусон, Бе / Jeremy Degruson, Ben) [2013, Мультфильм, Семейный, BDrip, 1080p] OverUnder / Вертикальная стереопара

в форуме HD-Video в 3D, Размер: 8.05 ГБ, Здоровье: 100%

Anonymous

0
23|8

38
0

02 ноя 2014, 09:47

Anonymous Перейти к последнему сообщению

В этой теме нет новых непрочитанных сообщений. Скачать торрент Проверен (Шансон) Рита Коган (Каган, Rita Kagan) - Дискография (2 релиза одного альбома) 1986, MP3, 192-320 kbps

в форуме Шансон|Авторская песня, Размер: 152.11 МБ, Здоровье: 0%

Anonymous

0
0|0

1
0

05 ноя 2016, 19:00

Anonymous Перейти к последнему сообщению

В этой теме нет новых непрочитанных сообщений. Скачать торрент Проверен Люси / Lucy (2014) WEB-DLRip [H.264/1080p-LQ]

в форуме 720p | 1080p, Размер: 2.69 ГБ, Здоровье: 100%

Anonymous

0
1223|113

48
0

09 ноя 2014, 09:57

Anonymous Перейти к последнему сообщению

В этой теме нет новых непрочитанных сообщений. Скачать торрент Люси / Lucy (2014) HD 720p трейлер

в форуме Трейлеры и доп.материалы, Размер: 34.59 МБ, Здоровье: 100%

Anonymous

0
148|1

253
2922

08 апр 2014, 21:38

Anonymous Перейти к последнему сообщению

В этой теме нет новых непрочитанных сообщений. Скачать торрент Проверен Джереми Робинсон / Jeremy Robinson - Собрание сочинений [2005-2009, FB2, RTF, RUS]

в форуме Детективы и Боевики, Размер: 8.03 МБ, Здоровье: 0%

Anonymous

0
0|0

1
0

08 сен 2016, 21:21

Anonymous Перейти к последнему сообщению



Сейчас этот форум просматривают: нет зарегистрированных пользователей и гости: 1


Вы не можете начинать темы
Вы не можете отвечать на сообщения
Вы не можете редактировать свои сообщения
Вы не можете удалять свои сообщения
Вы не можете добавлять вложения

Перейти:  

!ВНИМАНИЕ!
 Ресурс не предоставляет электронные версии произведений, а занимается лишь коллекционированием и каталогизацией ссылок, присылаемых и публикуемых на форуме нашими читателями. Если вы являетесь правообладателем какого-либо представленного материала и не желаете чтобы ссылка на него находилась в нашем каталоге, свяжитесь с нами и мы незамедлительно удалим её. Файлы для обмена на трекере предоставлены пользователями сайта, и администрация не несёт ответственности за их содержание. Просьба не заливать файлы, защищенные авторскими правами, а также файлы нелегального содержания!