На всех торрентах на трекере установлена скидка на скачивание в размере 100 процентов(а).
 Возможность скачивания торрента НЕ зависит от ограничений при низком ратио, низком аплоаде, требуемом ратио или требуемом аплоаде.


Начать новую тему Ответить на тему
Статистика раздачи
Размер: 1.79 ГБ | Добавлен: 19 апр 2014, 18:49 | Скачали: 0
Сидеров: 34  [0 байт/сек]    Личеров: 11  [0 байт/сек]
Пред. тема | След. тема 

Автор
Сообщение

СообщениеДобавлено: 19 апр 2014, 18:49 

Зачарованная / Enchanted
«Все еще ждешь принца?.. Добро пожаловать в реальный мир»

Год выпуска: 2007
Страна: США / Walt Disney Pictures
Жанр: мюзикл, фэнтези, мелодрама, комедия, семейный
Продолжительность: 01:47:28
Перевод: Профессиональный (полное дублирование)

Оригинальная аудиодорожка: английская
Субтитры: русские (полные - c BD и voronine), английские (полные) |*srt|
Режиссер: Кевин Лима / Kevin Lima
В ролях: Эми Адамс, Патрик Демпси, Джеймс Марсден, Тимоти Сполл,Сьюзен Сарандон, Идина Мензел, Рэйчел Кови, Джули Эндрюс, Джефф Беннетт, Кевин Лима
Описание: Юная девушка из мультипликационного мира влюбилась в прекрасного принца, чем немало разозлила его мачеху. С помощью черной магии королева отправляет несчастную в единственное место во Вселенной, где нет любви — современный Манхэттен. Вчерашней мультяшке придется как-то выживать в реальности.

Сэмпл: http://multi-up.com/922860
Качество: BDRip [рип с BDRemux 1080p]
Формат: AVI
Видео: 720x304 (2.37:1), 23.976 fps, XviD build 65 ~1484 kbps avg, 0.28 bit/pixel
Аудио 1: 48 kHz, AC3 Dolby Digital, 3/2 (L,C,R,l,r) + LFE ch, ~448.00 kbps avg |DUB|
Аудио 2: 48 kHz, AC3 Dolby Digital, 3/2 (L,C,R,l,r) + LFE ch, ~448.00 kbps avg |ENG| <= отдельно

Media Info
Код:
Код:
Формат                                   : AVI
Формат/Информация                        : Audio Video Interleave
Размер файла                             : 1,46 Гбайт
Продолжительность                        : 1 ч. 47 м.
Общий поток                              : 1942 Кбит/сек
Программа кодирования                    : VirtualDubMod 1.5.10.3 | www.virtualdub-fr.org || (build 2550/release)
Библиотека кодирования                   : VirtualDubMod build 2550/release

Видео
Идентификатор                            : 0
Формат                                   : MPEG-4 Visual
Профиль формата                          : Advanced Simple@L5
Параметр BVOP формата                    : 1
Параметр QPel формата                    : Нет
Параметр GMC формата                     : Без точки перехода
Параметр матрицы формата                 : Выборочная
Идентификатор кодека                     : XVID
Идентификатор кодека/Подсказка           : XviD
Продолжительность                        : 1 ч. 47 м.
Битрейт                                  : 1484 Кбит/сек
Ширина                                   : 720 пикселей
Высота                                   : 304 пикселя
Соотношение сторон                       : 2,35:1
Частота кадров                           : 23,976 кадра/сек
Цветовое пространство                    : YUV
Субдискретизация насыщенности            : 4:2:0
Битовая глубина                          : 8 бит
Тип развёртки                            : Прогрессивная
Метод сжатия                             : С потерями
Бит/(Пиксели*Кадры)                      : 0.283
Размер потока                            : 1,11 Гбайт (76%)
Библиотека кодирования                   : XviD 65

Аудио
Идентификатор                            : 1
Формат                                   : AC-3
Формат/Информация                        : Audio Coding 3
Расширение режима                        : CM (complete main)
Параметр Endianness формата              : Big
Идентификатор кодека                     : 2000
Продолжительность                        : 1 ч. 47 м.
Вид битрейта                             : Постоянный
Битрейт                                  : 448 Кбит/сек
Каналы                                   : 6 каналов
Расположение каналов                     : Front: L C R, Side: L R, LFE
Частота                                  : 48,0 КГц
Битовая глубина                          : 16 бит
Метод сжатия                             : С потерями
Размер потока                            : 344 Мбайт (23%)
Выравнивание                             : Разделение по промежуткам
Продолжительность промежутка             : 42  мс. (1,00 видеокадр)
Время предзагрузки промежутка            : 500  мс.

Скриншоты
загрузка...
Правила, инструкции, FAQ!!!
Торрент  Добавлен [19 апр 2014, 18:49] Скачать торрент
Скачать торрент
[ Размер 18.77 КБ / Просмотров 2 ]

Статус  
 
Размер  1.79 ГБ
Приватный: Нет (DHT включён)
.torrent скачан  0
Как залить торрент? | Как скачать Torrent? | Как смотреть и слушать онлайн?  


     Отправить личное сообщение
   
Страница 1 из 1
Показать сообщения за:  Поле сортировки  
Начать новую тему Ответить на тему

   Похожие торренты   Автор   Ответы   Просмотры   Последнее сообщение 
В этой теме нет новых непрочитанных сообщений. Скачать торрент Проверен Холодное сердце в 3Д / Frozen 3D (Крис Бак / Chris Buck, Дженнифер Ли / Jennifer Lee) [2013, мультфильм, мюзикл, фэнтези, комедия, мелодрама, приключения, семейный, BDRip-AVC] Half OverUnder / Вертикальная анаморфная стереопара

в форуме 3D Мультфильмы, Размер: 9.04 ГБ, Здоровье: 100%

Anonymous

0
25|8

18
0

07 сен 2016, 18:23

Anonymous Перейти к последнему сообщению

В этой теме нет новых непрочитанных сообщений. Скачать торрент Проверен Принцесса Лебедь / The Swan Princess (Ричард Рич) [1994 г., фэнтези, комедия, мелодрама, мюзикл, семейный, мультфильм, DVDRip]

в форуме Видео для смартфонов и КПК, Размер: 242.95 МБ, Здоровье: 100%

Anonymous

0
1|0

58
0

02 авг 2014, 17:02

Anonymous Перейти к последнему сообщению

В этой теме нет новых непрочитанных сообщений. Скачать торрент Джей и молчаливый Боб наносят ответный удар / Jay and Silent Bob Strike Back (Кевин Смит / Kevin Smith) [2001 г., пародийная комедия, мелодрама, приключения, BDRip-AVC] Dub

в форуме Комедии, Размер: 2.16 ГБ, Здоровье: 100%

Anonymous

0
37|12

61
0

22 апр 2014, 11:50

Anonymous Перейти к последнему сообщению

В этой теме нет новых непрочитанных сообщений. Скачать торрент Проверен Водный мир / Waterworld (Кевин Рейнольдс, Кевин Костнер / Kevin Reynolds, Kevin Costner) [1995, фантастика, боевик, приключения, BDRip, 480p] MVO, Original + sub (rus, eng)

в форуме Фильмы для iPod, iPhone, iPad, Размер: 1.91 ГБ, Здоровье: 100%

Гость

0
11|4

24
1

12 май 2015, 00:08

Гость Перейти к последнему сообщению

В этой теме нет новых непрочитанных сообщений. Скачать торрент Проверен Рапунцель: Запутанная история в 3Д / Tangled 3D (Нэйтан Грено, Байрон Ховард / Nathan Greno, Byron Howard) [2010, мультфильм, мюзикл, фэнтези, мелодрама, комедия, семейный, Blu-Ray Disc, 1080p] BD3D

в форуме HD-Video в 3D, Размер: 41.78 ГБ, Здоровье: 100%

Anonymous

0
36|12

58
0

02 ноя 2014, 09:51

Anonymous Перейти к последнему сообщению



Сейчас этот форум просматривают: нет зарегистрированных пользователей и гости: 1


Вы не можете начинать темы
Вы не можете отвечать на сообщения
Вы не можете редактировать свои сообщения
Вы не можете удалять свои сообщения
Вы не можете добавлять вложения

Перейти:  

!ВНИМАНИЕ!
 Ресурс не предоставляет электронные версии произведений, а занимается лишь коллекционированием и каталогизацией ссылок, присылаемых и публикуемых на форуме нашими читателями. Если вы являетесь правообладателем какого-либо представленного материала и не желаете чтобы ссылка на него находилась в нашем каталоге, свяжитесь с нами и мы незамедлительно удалим её. Файлы для обмена на трекере предоставлены пользователями сайта, и администрация не несёт ответственности за их содержание. Просьба не заливать файлы, защищенные авторскими правами, а также файлы нелегального содержания!