На всех торрентах на трекере установлена скидка на скачивание в размере 100 процентов(а).
 Возможность скачивания торрента НЕ зависит от ограничений при низком ратио, низком аплоаде, требуемом ратио или требуемом аплоаде.


Начать новую тему Ответить на тему
Статистика раздачи
Размер: 2.55 ГБ | Добавлен: 17 фев 2014, 11:46 | Скачали: 1
Сидеров: 1  [0 байт/сек]    Личеров: 3  [0 байт/сек]
Пред. тема | След. тема 

Автор
Сообщение

СообщениеДобавлено: 17 фев 2014, 11:46 

Приключения на ранчо "Гора Гризли" / Horse Crazy 2: The Legend of Grizzly Mountain / Adventures of Grizzly Mountain (Эрик Хендершот / Eric Hendershot)

Год: 2010
Страна: США
Жанр: Семейное кино
Продолжительность: 01:25:52
Перевод: Профессиональный (многоголосый, закадровый)
Язык перевода: Русский
Режиссёр: Эрик Хендершот / Eric Hendershot
В ролях: Далин Кристиансен, Дэвид Стивенс, Бриттани Армстронг, Кэролайн МакЛарен, медведь Барт и другие

Канал:

Автор записи: Nikolay_-_-

Сэмпл.

Описание: Приключенческий фильм. Банк пытается отобрать за долги ранчо «Гора Гризли» у его владельцев. Но внучка хозяина Бэлл верит, что семье поможет её покровитель – огромный медведь Тор...

Качество: SAT
Формат: TS
Видео: MPEG2; 720x576 (1024x576) (16:9) ; 25.000 fps; 3844 kbps
Аудио: AC-3; 48000 Hz; 192 kbps; 2 channels
MediaInfo
Общее
Идентификатор : 1 (0x1)
Полное имя : F:\Закачки\Adventures on Grizzly Mountains-2010-Nikolay_-_-.ts
Формат : MPEG-TS
Размер файла : 2,55 Гбайт
Продолжительность : 1 ч. 25 м.
Режим общего битрейта : Переменный
Общий поток : 4247 Кбит/сек
Максимальный общий битрейт : 35,5 Мбит/сек

Видео
Идентификатор : 4113 (0x1011)
Идентификатор меню : 1 (0x1)
Формат : MPEG Video
Версия формата : Version 2
Профиль формата : Main@Main
Параметр BVOP формата : Да
Параметр матрицы формата : Выборочная
Параметр GOP формата : M=3, N=36
Идентификатор кодека : 2
Продолжительность : 1 ч. 25 м.
Вид битрейта : Переменный
Битрейт : 3844 Кбит/сек
Максимальный битрейт : 15,0 Мбит/сек
Ширина : 720 пикселей
Высота : 576 пикселей
Соотношение сторон : 16:9
Частота кадров : 25,000 кадров/сек
Стандарт вещания : PAL
Цветовое пространство : YUV
Субдискретизация насыщенности : 4:2:0
Битовая глубина : 8 бит
Тип развёртки : Чересстрочная
Порядок развёртки : Верхнее поле первое
Метод сжатия : С потерями
Бит/(Пиксели*Кадры) : 0.371
Размер потока : 2,31 Гбайт (90%)

Аудио
Идентификатор : 4352 (0x1100)
Идентификатор меню : 1 (0x1)
Формат : AC-3
Формат/Информация : Audio Coding 3
Расширение режима : CM (complete main)
Параметр Endianness формата : Big
Идентификатор кодека : 129
Продолжительность : 1 ч. 25 м.
Вид битрейта : Постоянный
Битрейт : 192 Кбит/сек
Каналы : 2 канала
Расположение каналов : Front: L R
Частота : 48,0 КГц
Битовая глубина : 16 бит
Метод сжатия : С потерями
Размер потока : 118 Мбайт (5%)
Язык : Russian
Скриншоты

загрузка...
Правила, инструкции, FAQ!!!
Торрент  Добавлен [17 фев 2014, 11:46] Скачать торрент
Скачать торрент
[ Размер 13.26 КБ / Просмотров 7 ]

Статус  
 
Размер  2.55 ГБ
Приватный: Нет (DHT включён)
.torrent скачан  1
Как залить торрент? | Как скачать Torrent? | Как смотреть и слушать онлайн?  


     Отправить личное сообщение
   
Страница 1 из 1
Показать сообщения за:  Поле сортировки  
Начать новую тему Ответить на тему

   Похожие торренты   Автор   Ответы   Просмотры   Последнее сообщение 
В этой теме нет новых непрочитанных сообщений. Скачать торрент Проверен Гризли / Grizzly (2014) HDRip | L1

в форуме Ужасы, Размер: 1.45 ГБ, Здоровье: 100%

Anonymous

0
101|5

126
271

22 фев 2015, 13:25

Anonymous Перейти к последнему сообщению

В этой теме нет новых непрочитанных сообщений. Скачать торрент Проверен Гризли / Grizzly (2014) BDRip 720p | L1

в форуме 720p | 1080p, Размер: 4.65 ГБ, Здоровье: 100%

Гость

0
138|22

61
2005

22 фев 2015, 13:27

Гость Перейти к последнему сообщению

В этой теме нет новых непрочитанных сообщений. Скачать торрент Проверен Ведьмина гора / Race to Witch Mountain (Энди Фикмен / Andy Fickman) [2009, фантастика, триллер, комедия, приключения, BDRip, 480p] DUB, Original + sub (rus(forced), rus,

в форуме Фильмы для iPod, iPhone, iPad, Размер: 1.22 ГБ, Здоровье: 100%

Гость

0
12|4

33
0

11 май 2015, 01:32

Гость Перейти к последнему сообщению

В этой теме нет новых непрочитанных сообщений. Скачать торрент Проверен Холодная гора / Cold Mountain (2003) BDRip

в форуме Драмы, Мелодрамы, Размер: 2.91 ГБ, Здоровье: 100%

Anonymous

0
91|48

56
81

01 сен 2015, 19:23

Anonymous Перейти к последнему сообщению

В этой теме нет новых непрочитанных сообщений. Скачать торрент Проверен Ведьмина гора / Race to Witch Mountain (2009) BDRip | D

в форуме Фантастика, Фэнтези, Размер: 1.46 ГБ, Здоровье: 100%

Гость

0
67|7

132
366

27 апр 2015, 22:18

Гость Перейти к последнему сообщению



Сейчас этот форум просматривают: нет зарегистрированных пользователей и гости: 1


Вы не можете начинать темы
Вы не можете отвечать на сообщения
Вы не можете редактировать свои сообщения
Вы не можете удалять свои сообщения
Вы не можете добавлять вложения

Перейти:  

!ВНИМАНИЕ!
 Ресурс не предоставляет электронные версии произведений, а занимается лишь коллекционированием и каталогизацией ссылок, присылаемых и публикуемых на форуме нашими читателями. Если вы являетесь правообладателем какого-либо представленного материала и не желаете чтобы ссылка на него находилась в нашем каталоге, свяжитесь с нами и мы незамедлительно удалим её. Файлы для обмена на трекере предоставлены пользователями сайта, и администрация не несёт ответственности за их содержание. Просьба не заливать файлы, защищенные авторскими правами, а также файлы нелегального содержания!