На всех торрентах на трекере установлена скидка на скачивание в размере 100 процентов(а).
 Возможность скачивания торрента НЕ зависит от ограничений при низком ратио, низком аплоаде, требуемом ратио или требуемом аплоаде.


Начать новую тему Ответить на тему
Статистика раздачи
Размер: 1.46 ГБ | Добавлен: 16 ноя 2013, 10:32 | Скачали: 0
Сидеров: 0  [0 байт/сек]    Личеров: 0  [0 байт/сек]
Пред. тема | След. тема 

Автор
Сообщение

СообщениеДобавлено: 16 ноя 2013, 10:32 

Пророк / Next (2007) HDRip

Русское название: Пророк
Оригинальное название: Next
Производство: США
Год выпуска: 2007
Жанр: Фантастика, Боевик, Триллер

Описание фильма:
У Криса Джонсона есть секрет, отравляющий его жизнь: он может предсказывать ближайшее будущее. Устав от бесконечного внимания правительства и медицинских центров, пытающихся разгадать природу его удивительных способностей, Крис ложится на дно. Под вымышленным именем он работает в Лас-Вегасе, где развлекает публику дешевыми фокусами. Но когда группа террористов угрожает Лос-Анджелесу, специальному агенту Калли Феррис придется собрать все силы, чтобы разыскать Криса и убедить его помочь предотвратить катастрофу.

Режиссер: Ли Тамахори
Актеры: Николас Кейдж, Джулианна Мур, Джессика Бил, Томас Кречманн, Тори Киттлз, Хосе Суньига, Джим Бивер, Джейсон Батлер Харнер, Майкл Трукко, Энзо Силенти, Летиция Даниэль, Николас Пэджон, Сергей Трифунович, Чарльз Чун, Патриция Прата, Джон Хьюз, Джек Онг, Элис Ким Кейдж, Эдит Филдс, Лори Линн Фэйлор

Продолжительность: 01:36:10
Перевод: Дублированный



Видеокодек: XviD
Битрейт видео: ~1862 Кбит/с
Размер кадра: 720х304
Качество видео: HDRip
Аудиокодек: AC3 5.1
Битрейт аудио: 448 Кбит/с
Общее
Полное имя : C:\Justlan\Пророк\Prorok.avi
Формат : AVI
Формат/Информация : Audio Video Interleave
Размер файла : 1,46 Гбайт
Продолжительность : 1 ч. 36 м.
Общий поток : 2319 Кбит/сек
Программа кодирования : VirtualDubMod 1.5.10.2 (build 2540/release)
Библиотека кодирования : VirtualDubMod build 2540/release

Видео
Идентификатор : 0
Формат : MPEG-4 Visual
Профиль формата : Advanced Simple@L5
Параметр BVOP формата : 1
Параметр QPel формата : Нет
Параметр GMC формата : Без точки перехода
Параметр матрицы формата : Выборочная
Идентификатор кодека : XVID
Идентификатор кодека/Подсказка : XviD
Продолжительность : 1 ч. 36 м.
Битрейт : 1862 Кбит/сек
Ширина : 720 пикселей
Высота : 304 пикселя
Соотношение сторон : 2,35:1
Частота кадров : 23,976 кадра/сек
Цветовое пространство : YUV
Субдискретизация насыщенности : 4:2:0
Битовая глубина : 8 бит
Тип развёртки : Прогрессивная
Метод сжатия : С потерями
Бит/(Пиксели*Кадры) : 0.326
Размер потока : 1,15 Гбайт (79%)
Библиотека кодирования : XviD 1.2.1 (UTC 2008-12-04)

Аудио
Идентификатор : 1
Формат : AC-3
Формат/Информация : Audio Coding 3
Расширение режима : CM (complete main)
Идентификатор кодека : 2000
Продолжительность : 1 ч. 36 м.
Вид битрейта : Постоянный
Битрейт : 448 Кбит/сек
Каналы : 6 каналов
Расположение каналов : Front: L C R, Side: L R, LFE
Частота : 48,0 КГц
Битовая глубина : 16 бит
Метод сжатия : С потерями
Размер потока : 308 Мбайт (21%)
Выравнивание : Разделение по промежуткам
Продолжительность промежутка : 42 мс. (1,00 видеокадр)
Время предзагрузки промежутка : 500 мс.
Скриншоты:
загрузка...
Правила, инструкции, FAQ!!!
Торрент  Добавлен [16 ноя 2013, 10:32] Скачать торрент
Скачать торрент
[ Размер 15.22 КБ / Просмотров 3 ]

Статус  
 
Размер  1.46 ГБ
Приватный: Нет (DHT включён)
.torrent скачан  0
Как залить торрент? | Как скачать Torrent? | Как смотреть и слушать онлайн?  


     Отправить личное сообщение
   
Страница 1 из 1
Показать сообщения за:  Поле сортировки  
Начать новую тему Ответить на тему

   Похожие торренты   Автор   Ответы   Просмотры   Последнее сообщение 
В этой теме нет новых непрочитанных сообщений. Скачать торрент Проверен [VIDEO] Пророк / Next (Ли Тамахори / Lee Tamahori) [2007, Боевик, Фантастика, Триллер, HDRip] [MP4, 640x]

в форуме Видео для смартфонов и КПК, Размер: 778.6 МБ, Здоровье: 100%

Anonymous

0
2|1

25
0

02 авг 2014, 16:53

Anonymous Перейти к последнему сообщению

В этой теме нет новых непрочитанных сообщений. Скачать торрент Проверен Воронин Андрей - Пророк [skorostnik(ЛИ), 2011 г., 128kbps, MP3]

в форуме Детектив и Боевики, Размер: 538.21 МБ, Здоровье: 0%

Anonymous

0
0|0

10
0

04 май 2016, 22:31

Anonymous Перейти к последнему сообщению

В этой теме нет новых непрочитанных сообщений. Скачать торрент Проверен Пророк вне закона: Уоррен Джеффс / Outlaw Prophet: Warren Jeffs (2014) WEB-DLRip | iTunes

в форуме Драмы, Мелодрамы, Размер: 1.37 ГБ, Здоровье: 100%

Anonymous

0
405|12

41
275

06 окт 2014, 16:29

Anonymous Перейти к последнему сообщению

В этой теме нет новых непрочитанных сообщений. Скачать торрент Репортаж / [Rec] (2007) HDRip

в форуме Ужасы, Размер: 1.45 ГБ, Здоровье: 0%

Anonymous

0
0|0

45
0

02 фев 2014, 09:12

Anonymous Перейти к последнему сообщению

В этой теме нет новых непрочитанных сообщений. Скачать торрент Проверен Мальчик А / Boy A (2007) HDRip | P

в форуме Драмы, Мелодрамы, Размер: 744.93 МБ, Здоровье: 100%

Гость

0
103|11

70
128

20 апр 2015, 01:02

Гость Перейти к последнему сообщению



Сейчас этот форум просматривают: нет зарегистрированных пользователей и гости: 1


Вы не можете начинать темы
Вы не можете отвечать на сообщения
Вы не можете редактировать свои сообщения
Вы не можете удалять свои сообщения
Вы не можете добавлять вложения

Перейти:  

!ВНИМАНИЕ!
 Ресурс не предоставляет электронные версии произведений, а занимается лишь коллекционированием и каталогизацией ссылок, присылаемых и публикуемых на форуме нашими читателями. Если вы являетесь правообладателем какого-либо представленного материала и не желаете чтобы ссылка на него находилась в нашем каталоге, свяжитесь с нами и мы незамедлительно удалим её. Файлы для обмена на трекере предоставлены пользователями сайта, и администрация не несёт ответственности за их содержание. Просьба не заливать файлы, защищенные авторскими правами, а также файлы нелегального содержания!