На всех торрентах на трекере установлена скидка на скачивание в размере 100 процентов(а).
 Возможность скачивания торрента НЕ зависит от ограничений при низком ратио, низком аплоаде, требуемом ратио или требуемом аплоаде.


Начать новую тему Ответить на тему
Статистика раздачи
Размер: 1.37 ГБ | Добавлен: 07 окт 2013, 08:15 | Скачали: 0
Сидеров: 0  [0 байт/сек]    Личеров: 0  [0 байт/сек]
Пред. тема | След. тема 

Автор
Сообщение

СообщениеДобавлено: 07 окт 2013, 08:15 

Страна: США
Жанр: фэнтези, триллер
Год выпуска: 2013
Продолжительность: 01:31:41
Перевод: Профессиональный (многоголосый закадровый)
Cубтитры: нет
Оригинальная аудиодорожка: нет
Режиссер: Мэтт Томпсон / Matt Thompson
В ролях: Мэтт Томпсон, Кимберли Александр, Джесси Кристофферсон, Джина Компаретто, Крис Фронтьеро, Грейнджер Хайнс, Занн МаКларнон, Майкл Акоста, Джон Дуглас Айерс
Описание: Студенту семинарии было видение — он должен открыть тайну своей родословной, и тем самым открыть собственное предназначение и миссию для которой он живет. Понимая, что подобные видение могут быть только со стороны сил зла, он прекращает обучение в семинарии и беря с собой подругу, уходит на поиски.
Они привели его к заброшенному дому, в котором он обнаруживает истинное наследие предков — старинный медальон. Друзья его находятся в смертельной опасности и у него происходит внутренняя борьба, завязанная на искушениях: остаться ли собой или принять тот дар, которым наделила его родословная.


Качество видео: WEB-DLRip
Формат видео: AVI
Видео: XviD, 720x304 (2,35:1), 25 fps, ~1933 kbps avg, 0.35 bit/pixel
Аудио: 48 kHz, AC3 Dolby Digital, 2/0 (L,R) ch, ~192 kbps
MediaInfo
Общее
Полное имя : E:\Тайна рода_2013.avi
Формат : AVI
Формат/Информация : Audio Video Interleave
Размер файла : 1,37 Гбайт
Продолжительность : 1 ч. 31 м.
Общий поток : 2135 Кбит/сек
Программа кодирования : VirtualDubMod 1.5.10.3 | http://www.virtualdub-fr.org || (build 2550/release)
Библиотека кодирования : VirtualDubMod build 2550/release

Видео
Идентификатор : 0
Формат : MPEG-4 Visual
Профиль формата : Advanced Simple@L5
Параметр BVOP формата : 2
Параметр QPel формата : Нет
Параметр GMC формата : Без точки перехода
Параметр матрицы формата : Default (MPEG)
Идентификатор кодека : XVID
Идентификатор кодека/Подсказка : XviD
Продолжительность : 1 ч. 31 м.
Битрейт : 1933 Кбит/сек
Ширина : 720 пикселей
Высота : 304 пикселя
Соотношение сторон : 2,35:1
Частота кадров : 25,000 кадров/сек
Цветовое пространство : YUV
Субдискретизация насыщенности : 4:2:0
Битовая глубина : 8 бит
Тип развёртки : Прогрессивная
Метод сжатия : С потерями
Бит/(Пиксели*Кадры) : 0.353
Размер потока : 1,24 Гбайт (91%)
Библиотека кодирования : XviD 1.2.1 (UTC 2008-12-04)

Аудио
Идентификатор : 1
Формат : AC-3
Формат/Информация : Audio Coding 3
Расширение режима : CM (complete main)
Параметр Endianness формата : Big
Идентификатор кодека : 2000
Продолжительность : 1 ч. 31 м.
Вид битрейта : Постоянный
Битрейт : 192 Кбит/сек
Каналы : 2 канала
Расположение каналов : Front: L R
Частота : 48,0 КГц
Битовая глубина : 16 бит
Метод сжатия : С потерями
Размер потока : 126 Мбайт (9%)
Выравнивание : Разделение по промежуткам
Продолжительность промежутка : 40 мс. (1,00 видеокадр)
Время предзагрузки промежутка : 500 мс.
Скриншоты
загрузка...
Правила, инструкции, FAQ!!!
Торрент  Добавлен [07 окт 2013, 08:15] Скачать торрент
Скачать торрент
[ Размер 14.15 КБ / Просмотров 10 ]

Статус  
 
Размер  1.37 ГБ
Приватный: Нет (DHT включён)
.torrent скачан  0
Как залить торрент? | Как скачать Torrent? | Как смотреть и слушать онлайн?  


     Отправить личное сообщение
   
Страница 1 из 1
Показать сообщения за:  Поле сортировки  
Начать новую тему Ответить на тему

   Похожие торренты   Автор   Ответы   Просмотры   Последнее сообщение 
В этой теме нет новых непрочитанных сообщений. Скачать торрент Эпоха / Epoch (Мэтт Кодд / Matt Codd) [2001, Фантастика, триллер, DVDRip]

в форуме Фантастика, Фэнтези, Размер: 1.45 ГБ, Здоровье: 100%

Anonymous

0
3|1

47
1

24 апр 2014, 14:08

Anonymous Перейти к последнему сообщению

В этой теме нет новых непрочитанных сообщений. Скачать торрент Впусти меня. Сага / Let Me In (Мэтт Ривз / Matt Reeves) [2010, США, Великобритания, ужасы, фэнтези, драма, HDRip-AVC] DUB

в форуме Ужасы, Размер: 744.48 МБ, Здоровье: 0%

Anonymous

0
0|0

22
0

02 апр 2014, 08:24

Anonymous Перейти к последнему сообщению

В этой теме нет новых непрочитанных сообщений. Скачать торрент Проверен Джим Томпсон/Jim Thompson - Собрание сочинений [1942-2003, fb2,rtf]

в форуме Детективы и Боевики, Размер: 11.1 МБ, Здоровье: 0%

Anonymous

0
0|0

2
0

08 сен 2016, 21:39

Anonymous Перейти к последнему сообщению

В этой теме нет новых непрочитанных сообщений. Скачать торрент Проверен Thompson K. / Томпсон К. - 50 Robots to Draw and Paint / 50 Роботов, нарисовать и разукрасить [2006, PDF, ENG]

в форуме Рисунок, графический дизайн, Размер: 57.32 МБ, Здоровье: 100%

Anonymous

0
11|3

22
3

27 янв 2016, 21:54

Anonymous Перейти к последнему сообщению

В этой теме нет новых непрочитанных сообщений. Скачать торрент Проверен (Blues Rock) Bloodline - Bloodline - 1994, APE (image+.cue), lossless

в форуме Blues (Texas, Chicago, Modern and Others), Размер: 426.55 МБ, Здоровье: 0%

Anonymous

0
0|0

2
0

16 окт 2016, 13:20

Anonymous Перейти к последнему сообщению



Сейчас этот форум просматривают: нет зарегистрированных пользователей и гости: 1


Вы не можете начинать темы
Вы не можете отвечать на сообщения
Вы не можете редактировать свои сообщения
Вы не можете удалять свои сообщения
Вы не можете добавлять вложения

Перейти:  

!ВНИМАНИЕ!
 Ресурс не предоставляет электронные версии произведений, а занимается лишь коллекционированием и каталогизацией ссылок, присылаемых и публикуемых на форуме нашими читателями. Если вы являетесь правообладателем какого-либо представленного материала и не желаете чтобы ссылка на него находилась в нашем каталоге, свяжитесь с нами и мы незамедлительно удалим её. Файлы для обмена на трекере предоставлены пользователями сайта, и администрация не несёт ответственности за их содержание. Просьба не заливать файлы, защищенные авторскими правами, а также файлы нелегального содержания!