На всех торрентах на трекере установлена скидка на скачивание в размере 100 процентов(а).
 Возможность скачивания торрента НЕ зависит от ограничений при низком ратио, низком аплоаде, требуемом ратио или требуемом аплоаде.


Начать новую тему Ответить на тему
Статистика раздачи
Размер: 745.27 МБ | Добавлен: 24 сен 2013, 12:44 | Скачали: 97
Сидеров: 20  [0 байт/сек]    Личеров: 27  [0 байт/сек]
Пред. тема | След. тема 

Автор
Сообщение

СообщениеДобавлено: 24 сен 2013, 12:44 

Год выпуска: 2011
Страна: США
Киностудия: Stuber Productions, Universal Pictures
Жанр: фэнтези, комедия, приключения
Продолжительность: 01:42:27

Перевод: Профессиональный (дублированный)
Cубтитры: нет
Оригинальная аудиодорожка: нет

Режиссер: Дэвид Гордон Грин / David Gordon Green

В ролях:
Дэнни МакБрайд, Джеймс Франко, Расмус Хардайкер, Натали Портман, Тоби Джонс, Джастин Теру, Зои Дешанель, Чарльз Дэнс, Дамиан Льюис, Саймон Фарнэби...

Описание:
Ленивый принц Тадеуш свыкся развлекаться и бегать за служанками, пока его старший брат Фабио подсоблял отцу вести дела королевства. Но после того, как лютый колдун украл нареченную Фабио, Беладонну, Тадеушу довелось примкнуть к отряду, который обязан вызволить принцессу. Впереди — странствование через неистовые земли, встречи с чудовищами и девицей - воительницей Изабеллой, у которой свои счеты с колдуном.






Бюджет: $49 900 000

Исходник Blu-Ray
Тип релиза: BDRip
Контейнер: AVI

Видео: 720x304 (2.35:1), 23.976 fps, XVID ~ 880 kbps avg, 0.168 bit/pixel
Аудио: Русский, 48 kHz, МР3, 2 ch, 128.00 kbps Constant

Раздача от:
Общее
Полное имя : Hrabrye.pertsem.2011.D.BDRip.745MB.avi
Формат : AVI
Формат/Информация : Audio Video Interleave
Размер файла : 745 Мбайт
Продолжительность : 1 ч. 42 м.
Общий поток : 1017 Кбит/сек
Программа кодирования : VirtualDubMod 1.5.10.3 (build 2550/release)
Библиотека кодирования : VirtualDubMod build 2550/release

Видео
Идентификатор : 0
Формат : MPEG-4 Visual
Профиль формата : Advanced Simple@L5
Параметр BVOP формата : 1
Параметр QPel формата : Нет
Параметр GMC формата : Без точки перехода
Параметр матрицы формата : Выборочная
Идентификатор кодека : XVID
Идентификатор кодека/Подсказка : XviD
Продолжительность : 1 ч. 42 м.
Битрейт : 880 Кбит/сек
Ширина : 720 пикс.
Высота : 304 пикс.
Соотношение сторон : 2,35:1
Частота кадров : 23,976 кадр/сек
Цветовое пространство : YUV
Подвыборка цветности : 4:2:0
Битовая глубина : 8 бит
Тип развёртки : Прогрессивная
Метод сжатия : С потерями
Бит/(Пиксели*Кадры) : 0.168
Размер потока : 645 Мбайт (86%)
Библиотека кодирования : XviD 1.2.1 (UTC 2008-12-04)

Аудио
Идентификатор : 1
Формат : MPEG Audio
Версия формата : Version 1
Профиль формата : Layer 3
Режим : Joint stereo
Идентификатор кодека : 55
Идентификатор кодека/Подсказка : MP3
Продолжительность : 1 ч. 42 м.
Вид битрейта : Постоянный
Битрейт : 128 Кбит/сек
Каналы : 2 канала
Частота : 48,0 КГц
Метод сжатия : С потерями
Размер потока : 93,8 Мбайт (13%)
Выравнивание : Соединение по промежуткам
Продолжительность промежутка : 42 мс. (1,00 видеокадр)
Время предзагрузки промежутка : 504 ms


загрузка...
Правила, инструкции, FAQ!!!
Торрент  Добавлен [24 сен 2013, 12:44] Скачать торрент
Скачать торрент
[ Размер 15.08 КБ / Просмотров 7 ]

Статус  
 
Размер  745.27 МБ
Приватный: Нет (DHT включён)
.torrent скачан  97
Как залить торрент? | Как скачать Torrent? | Как смотреть и слушать онлайн?  


     Отправить личное сообщение
   
Страница 1 из 1
Показать сообщения за:  Поле сортировки  
Начать новую тему Ответить на тему

   Похожие торренты   Автор   Ответы   Просмотры   Последнее сообщение 
В этой теме нет новых непрочитанных сообщений. Скачать торрент Проверен Храбрые перцем / Your Highness (2011) BDRip 720p | Театральная версия

в форуме 720p | 1080p, Размер: 3.56 ГБ, Здоровье: 100%

Anonymous

0
90|23

27
558

01 фев 2015, 21:55

Anonymous Перейти к последнему сообщению

В этой теме нет новых непрочитанных сообщений. Скачать торрент Проверен Мужчинам вход воспрещен - Красавина Е. - Кофе с перцем [2006, FB2/RTF/PDF, RUS]

в форуме Детективы и Боевики, Размер: 2.59 МБ, Здоровье: 0%

Anonymous

0
0|0

1
0

08 сен 2016, 20:46

Anonymous Перейти к последнему сообщению

В этой теме нет новых непрочитанных сообщений. Скачать торрент Проверен (Alternative Rock / Blues Rock) Перцем по сердцу - 5 песен (EP) - 2016, MP3, 320 kbps

в форуме Русский Рок, Размер: 50 МБ, Здоровье: 0%

Anonymous

0
0|0

0
0

21 авг 2016, 14:08

Anonymous Перейти к последнему сообщению

В этой теме нет новых непрочитанных сообщений. Скачать торрент Проверен (Шансон) группа "Парни с перцем" - Где же вы, мальчишки? - 2004, MP3, 320 kbps

в форуме Шансон|Авторская песня, Размер: 98 МБ, Здоровье: 0%

Anonymous

0
0|0

0
0

05 ноя 2016, 18:15

Anonymous Перейти к последнему сообщению

В этой теме нет новых непрочитанных сообщений. Скачать торрент Проверен (Alternative rock / Russ pop) Перцем по Сердцу - Дискография (7 альбомов) (2010 - 2015) - 2010, MP3, 320 kbps

в форуме Русский Рок, Размер: 346.67 МБ, Здоровье: 0%

Anonymous

0
0|0

0
0

21 авг 2016, 14:08

Anonymous Перейти к последнему сообщению



Сейчас этот форум просматривают: нет зарегистрированных пользователей и гости: 1


Вы не можете начинать темы
Вы не можете отвечать на сообщения
Вы не можете редактировать свои сообщения
Вы не можете удалять свои сообщения
Вы не можете добавлять вложения

Перейти:  

!ВНИМАНИЕ!
 Ресурс не предоставляет электронные версии произведений, а занимается лишь коллекционированием и каталогизацией ссылок, присылаемых и публикуемых на форуме нашими читателями. Если вы являетесь правообладателем какого-либо представленного материала и не желаете чтобы ссылка на него находилась в нашем каталоге, свяжитесь с нами и мы незамедлительно удалим её. Файлы для обмена на трекере предоставлены пользователями сайта, и администрация не несёт ответственности за их содержание. Просьба не заливать файлы, защищенные авторскими правами, а также файлы нелегального содержания!