На всех торрентах на трекере установлена скидка на скачивание в размере 100 процентов(а).
 Возможность скачивания торрента НЕ зависит от ограничений при низком ратио, низком аплоаде, требуемом ратио или требуемом аплоаде.


Начать новую тему Ответить на тему
Статистика раздачи
Размер: 1.37 ГБ | Добавлен: 25 авг 2013, 20:28 | Скачали: 1
Сидеров: 0  [0 байт/сек]    Личеров: 0  [0 байт/сек]
Пред. тема | След. тема 

Автор
Сообщение

СообщениеДобавлено: 25 авг 2013, 20:28 

Колония / The Colony (2013) DVDRip

Год выпуска: 2013
Производство: Канада, Alcina Pictures, Item 7, Mad Samurai Productions
Жанр: Фантастика, Боевик, Триллер
Перевод: Двухголосый закадровый, любительский
Озвучка / Автор перевода: Сладкая парочка
Субтитры: Отсутствуют

Дата мировой премьеры: 26 апреля 2013

Режиссер: Джефф Ренфро
Продюсер: Пол Баркин, Мэттью Керви, Пьер Ивен
Актеры: Лоренс Фишбёрн, Кевин Зегерс, Билл Пэкстон, Шарлотта Салливан, Джон Тенч, Аттикус Дин Митчелл, Дрю Вигевер, Романо Орзари, Эрл Паско, Лиза Берри

Описание фильма:
После природного катаклизма, под ледяной поверхностью, покрывшей Землю, оставшиеся в живых люди собрались в Колонию 7 и пытаются выжить несмотря на сокращающиеся запасы продовольствия. Они еще поддерживают связь с Колонией 5, но после того, как контакт с ними теряется, группа смельчаков отправляется в опасную экспедицию, чтобы выяснить, что произошло с их соседями. Преодолев тяжелейший путь герои сталкиваются с опасностью во много раз превосходящую природную угрозу холода…



Продолжительность: 01:34:13
Качество видео: DVDRip

Видеокодек: XviD
Битрейт видео: ~1627 kb/s
Размер кадра: 720x384
Аудиокодек: AC3 5.1
Битрейт аудио: 448 kb/s
Код:
Код:
General
Complete name                  : The.Colony.2013.DVDRip.1400MB.NNM-CLUB.avi
Format                         : AVI
Format/Info                    : Audio Video Interleave
File size                      : 1.37 GiB
Duration                       : 1h 34mn
Overall bit rate               : 2 085 Kbps
Writing application            : VirtualDubMod 1.5.10.2 (build 2540/release)
Writing library                : VirtualDubMod build 2540/release

Video
ID                             : 0
Format                         : MPEG-4 Visual
Format profile                 : Advanced Simple@L5
Format settings, BVOP          : Yes
Format settings, QPel          : No
Format settings, GMC           : No warppoints
Format settings, Matrix        : Default (MPEG)
Codec ID                       : XVID
Codec ID/Hint                  : XviD
Duration                       : 1h 34mn
Bit rate                       : 1 628 Kbps
Width                          : 720 pixels
Height                         : 384 pixels
Display aspect ratio           : 1.85:1
Frame rate                     : 23.976 fps
Color space                    : YUV
Chroma subsampling             : 4:2:0
Bit depth                      : 8 bits
Scan type                      : Progressive
Compression mode               : Lossy
Bits/(Pixel*Frame)             : 0.246
Stream size                    : 1.07 GiB (78%)
Writing library                : XviD 1.2.1 (UTC 2008-12-04)

Audio
ID                             : 1
Format                         : AC-3
Format/Info                    : Audio Coding 3
Mode extension                 : CM (complete main)
Format settings, Endianness    : Big
Codec ID                       : 2000
Duration                       : 1h 34mn
Bit rate mode                  : Constant
Bit rate                       : 448 Kbps
Channel(s)                     : 6 channels
Channel positions              : Front: L C R, Side: L R, LFE
Sampling rate                  : 48.0 KHz
Bit depth                      : 16 bits
Compression mode               : Lossy
Stream size                    : 302 MiB (21%)
Alignment                      : Split accross interleaves
Interleave, duration           : 42 ms (1.00 video frame)
Interleave, preload duration   : 500 ms


Скриншоты:



Время раздачи: 24/7 по возможности
загрузка...
Правила, инструкции, FAQ!!!
Торрент  Добавлен [25 авг 2013, 20:28] Скачать торрент
Скачать торрент
[ Размер 14.48 КБ / Просмотров 16 ]

Статус  
 
Размер  1.37 ГБ
Приватный: Нет (DHT включён)
.torrent скачан  1
Как залить торрент? | Как скачать Torrent? | Как смотреть и слушать онлайн?  


     Отправить личное сообщение
   
Страница 1 из 1
Показать сообщения за:  Поле сортировки  
Начать новую тему Ответить на тему

   Похожие торренты   Автор   Ответы   Просмотры   Последнее сообщение 
В этой теме нет новых непрочитанных сообщений. Скачать торрент Затерянная колония / Исчезнувшая колония / The Lost Colony / Wraiths of Roanoke (Метт Кодд / Matt Codd) [2007, США, боевик, фантастика, фентези, ужасы, DVDRip] MVO

в форуме Боевики, Размер: 1.46 ГБ, Здоровье: 100%

Anonymous

0
2|1

64
0

11 фев 2014, 09:16

Anonymous Перейти к последнему сообщению

В этой теме нет новых непрочитанных сообщений. Скачать торрент Колония / The Colony (2013) BDRip 720p | Лицензия

в форуме 720p | 1080p, Размер: 5 ГБ, Здоровье: 0%

Anonymous

0
0|0

23
0

24 фев 2014, 10:29

Anonymous Перейти к последнему сообщению

В этой теме нет новых непрочитанных сообщений. Скачать торрент Колония / The Colony (2013) BDRip 1080p | Лицензия

в форуме 720p | 1080p, Размер: 7.15 ГБ, Здоровье: 0%

Anonymous

0
0|0

17
0

24 фев 2014, 10:35

Anonymous Перейти к последнему сообщению

В этой теме нет новых непрочитанных сообщений. Скачать торрент Проверен Колония / Colony [S01] (2016) WEB-DLRip | LostFilm

в форуме Зарубежные сериалы, Размер: 4.89 ГБ, Здоровье: 100%

Гость

0
228|146

96
227

19 мар 2016, 21:47

Гость Перейти к последнему сообщению

В этой теме нет новых непрочитанных сообщений. Скачать торрент Проверен Колония / Colony [S01] (2016) WEBRip 1080p | LostFilm

в форуме Зарубежные сериалы, Размер: 18.52 ГБ, Здоровье: 14%

Гость

0
19|131

129
25

20 мар 2016, 00:54

Гость Перейти к последнему сообщению



Сейчас этот форум просматривают: нет зарегистрированных пользователей и гости: 1


Вы не можете начинать темы
Вы не можете отвечать на сообщения
Вы не можете редактировать свои сообщения
Вы не можете удалять свои сообщения
Вы не можете добавлять вложения

Перейти:  

!ВНИМАНИЕ!
 Ресурс не предоставляет электронные версии произведений, а занимается лишь коллекционированием и каталогизацией ссылок, присылаемых и публикуемых на форуме нашими читателями. Если вы являетесь правообладателем какого-либо представленного материала и не желаете чтобы ссылка на него находилась в нашем каталоге, свяжитесь с нами и мы незамедлительно удалим её. Файлы для обмена на трекере предоставлены пользователями сайта, и администрация не несёт ответственности за их содержание. Просьба не заливать файлы, защищенные авторскими правами, а также файлы нелегального содержания!