На всех торрентах на трекере установлена скидка на скачивание в размере 100 процентов(а).
 Возможность скачивания торрента НЕ зависит от ограничений при низком ратио, низком аплоаде, требуемом ратио или требуемом аплоаде.


Начать новую тему Ответить на тему
Статистика раздачи
Размер: 1.46 ГБ | Добавлен: 25 авг 2013, 20:22 | Скачали: 0
Сидеров: 0  [0 байт/сек]    Личеров: 0  [0 байт/сек]
Пред. тема | След. тема 

Автор
Сообщение

СообщениеДобавлено: 25 авг 2013, 20:22 

Пена дней / L'ecume des jours (2013) HDRip

Год выпуска: 2013
Производство: Франция, Бельгия, Angoa-Agicoa, Anton Capital Entertainment (ACE)
Жанр: Фэнтези, Мелодрама, Драма
Перевод: Дублированный (Чистый звук)
Субтитры: Отсутствуют

Дата мировой премьеры: 24 апреля 2013
Дата российской премьеры: 4 июля 2013, «Премиум Фильм»
Дата выхода DVD релиза: 5 сентября 2013, «CP Дистрибуция»

Режиссер: Мишель Гондри
Продюсер: Люк Босси, Ксавье Кастано, Женевьева Лемаль
Актеры: Ромэн Дюри, Одри Тоту, Омар Си, Шарлотта Лебон, Филипп Торретон, Винсент Роттирс, Лорент Лэфитт, Зинедин Суалам, Ален Шаба, Марина Розенмен, Мэтью Полус

Описание фильма:
История любви, разворачивающаяся в фантастическом мире, где влюбленные летают на свидания в розовых тучках и танцуют на потолке, где в коридоре обычной квартиры живет солнце, а мыши-домоправители ведут беседы с кошками, где цветы прорастают внутри людей и тепло человеческого сердца способно уничтожить самое опасное оружие.



Продолжительность: 02:10:47
Качество видео: HDRip [Рип с BDRip 720p]

Видеокодек: XviD
Битрейт видео: 1393 kb/s
Размер кадра: 720x384
Аудиокодек: AC3, 2 ch
Битрейт аудио: 192 kb/s
Код:
Код:
Общее
Полное имя                               : D:\Раздачи\Pena.dnej.2013.HDRip.NNM-CLUB.avi
Формат                                   : AVI
Формат/Информация                        : Audio Video Interleave
Размер файла                             : 1,46 Гбайт
Продолжительность                        : 2 ч. 10 м.
Общий поток                              : 1594 Кбит/сек
Программа кодирования                    : VirtualDubMod 1.5.10.3 | (build 2550/release)
Библиотека кодирования                   : VirtualDubMod build 2550/release

Видео
Идентификатор                            : 0
Формат                                   : MPEG-4 Visual
Профиль формата                          : Advanced Simple@L5
Параметр BVOP формата                    : 2
Параметр QPel формата                    : Нет
Параметр GMC формата                     : Без точки перехода
Параметр матрицы формата                 : Выборочная
Идентификатор кодека                     : XVID
Идентификатор кодека/Подсказка           : XviD
Продолжительность                        : 2 ч. 10 м.
Битрейт                                  : 1393 Кбит/сек
Ширина                                   : 720 пикселей
Высота                                   : 384 пикселя
Соотношение сторон                       : 1,85:1
Частота кадров                           : 24,000 кадра/сек
Цветовое пространство                    : YUV
Субдискретизация насыщенности            : 4:2:0
Битовая глубина                          : 8 бит
Тип развёртки                            : Прогрессивная
Метод сжатия                             : С потерями
Бит/(Пиксели*Кадры)                      : 0.210
Размер потока                            : 1,27 Гбайт (87%)
Библиотека кодирования                   : XviD 1.2.1 (UTC 2008-12-04)

Аудио
Идентификатор                            : 1
Формат                                   : AC-3
Формат/Информация                        : Audio Coding 3
Расширение режима                        : CM (complete main)
Параметр Endianness формата              : Big
Идентификатор кодека                     : 2000
Продолжительность                        : 2 ч. 10 м.
Вид битрейта                             : Постоянный
Битрейт                                  : 192 Кбит/сек
Каналы                                   : 2 канала
Расположение каналов                     : Front: L R
Частота                                  : 48,0 КГц
Битовая глубина                          : 16 бит
Метод сжатия                             : С потерями
Размер потока                            : 180 Мбайт (12%)
Выравнивание                             : Разделение по промежуткам
Продолжительность промежутка             : 42  мс. (1,00 видеокадр)
Время предзагрузки промежутка            : 500  мс.


Скриншоты:

Приятного просмотра

и не забываем говорить
СПАСИБО...
Время раздачи:
24/7,
до 5 скачавших.
загрузка...
Правила, инструкции, FAQ!!!
Торрент  Добавлен [25 авг 2013, 20:22] Скачать торрент
Скачать торрент
[ Размер 15.25 КБ / Просмотров 12 ]

Статус  
 
Размер  1.46 ГБ
Приватный: Нет (DHT включён)
.torrent скачан  0
Как залить торрент? | Как скачать Torrent? | Как смотреть и слушать онлайн?  


     Отправить личное сообщение
   
Страница 1 из 1
Показать сообщения за:  Поле сортировки  
Начать новую тему Ответить на тему

   Похожие торренты   Автор   Ответы   Просмотры   Последнее сообщение 
В этой теме нет новых непрочитанных сообщений. Скачать торрент Проверен Борис Виан / Boris Vian - Пена дней / L’Écume des Jours [2012, epub, RUS]

в форуме Зарубежная литература (XX и XXI век), Размер: 457.83 КБ, Здоровье: 0%

Anonymous

0
0|0

0
0

08 сен 2016, 19:22

Anonymous Перейти к последнему сообщению

В этой теме нет новых непрочитанных сообщений. Скачать торрент Проверен (Symphonic Prog) Memoriance - L'Ecume Des Jours D'Apres Boris Vian - 1979, FLAC (tracks+.cue), lossless

в форуме Progressive & Art-Rock, Размер: 238.64 МБ, Здоровье: 0%

Anonymous

0
0|0

0
0

30 авг 2016, 18:10

Anonymous Перейти к последнему сообщению

В этой теме нет новых непрочитанных сообщений. Скачать торрент Проверен (Symphonic prog) [CD] Memoriance — "Et Apres..." (1976), "L'Ecume des Jours" (1979) — 2015-16 rem. editions; FLAC (image+.cue), lossless

в форуме Progressive & Art-Rock, Размер: 569.41 МБ, Здоровье: 100%

Anonymous

0
1|0

2
1

31 авг 2016, 23:41

Anonymous Перейти к последнему сообщению

В этой теме нет новых непрочитанных сообщений. Скачать торрент Проверен Два дня, одна ночь / Deux jours, une nuit (2014) HDRip | P

в форуме Драмы, Мелодрамы, Размер: 1.37 ГБ, Здоровье: 100%

Anonymous

0
326|21

91
1534

15 окт 2014, 00:56

Anonymous Перейти к последнему сообщению

В этой теме нет новых непрочитанных сообщений. Скачать торрент Кот Гром и заколдованный дом / The House of Magic (2013) HDRip [Line]

в форуме Зарубежные мультфильмы, Размер: 1.37 ГБ, Здоровье: 0%

Anonymous

0
0|0

65
1

16 май 2014, 22:32

Anonymous Перейти к последнему сообщению



Сейчас этот форум просматривают: нет зарегистрированных пользователей и гости: 2


Вы не можете начинать темы
Вы не можете отвечать на сообщения
Вы не можете редактировать свои сообщения
Вы не можете удалять свои сообщения
Вы не можете добавлять вложения

Перейти:  

!ВНИМАНИЕ!
 Ресурс не предоставляет электронные версии произведений, а занимается лишь коллекционированием и каталогизацией ссылок, присылаемых и публикуемых на форуме нашими читателями. Если вы являетесь правообладателем какого-либо представленного материала и не желаете чтобы ссылка на него находилась в нашем каталоге, свяжитесь с нами и мы незамедлительно удалим её. Файлы для обмена на трекере предоставлены пользователями сайта, и администрация не несёт ответственности за их содержание. Просьба не заливать файлы, защищенные авторскими правами, а также файлы нелегального содержания!