На всех торрентах на трекере установлена скидка на скачивание в размере 100 процентов(а).
 Возможность скачивания торрента НЕ зависит от ограничений при низком ратио, низком аплоаде, требуемом ратио или требуемом аплоаде.


Начать новую тему Ответить на тему
Статистика раздачи
Размер: 1.46 ГБ | Добавлен: 25 июл 2013, 11:22 | Скачали: 997
Сидеров: 83  [0 байт/сек]    Личеров: 1  [0 байт/сек]
Пред. тема | След. тема 

Автор
Сообщение

СообщениеДобавлено: 25 июл 2013, 11:22 

Страна: США / 343 Industries, Laskey Productions
Жанр: фантастика, боевик, триллер
Год выпуска: 2012
Продолжительность: 01:31:23

Перевод: Профессиональный (многоголосый, закадровый)
Оригинальная аудиодорожка: нет
Субтитры: русский

Режиссер: Стюарт Хендлер / Stewart Hendler

В ролях: Анна Попплуэлл, Том Грин, Эниша Брюстер, Айелет Зурер, Масам Холден, Майк Допуд, Айэйн Белчер, Осрик Чау, Катерина Кателиева, Дэниэл Кадмор...

Описание: Эта история возвращает игроков к началу войны между людьми и Ковенантами и подводит к событиям, происходящим в игре Halo 4. В стенах военной академии Космического Командования Объединённых Наций (UNSC) группу курсантов знатного происхождения готовят стать следующим поколением солдат в надвигающейся войне между UNCS и повстанцами на колониальных планетах. Один из кадетов, Томас Ласки, ведет внутреннюю борьбу, преодолевая сомнения по поводу войны и опасения не оправдать высоких ожиданий командования. К тому моменту, как Ласки смирился со своей ролью будущего командира, ужасающее войско альянса Ковенант вторгается на планету и переворачивает привычный мир героя с ног на голову. Вдохновлённый подвигами Мастера Чифа, Ласки должен на собственном опыте узнать, что значит быть героем.






Исходник: BDRemux 1080p + DVD5 R5
Качество: BDRip
Формат: AVI

Видео: 720x304 (2.35:1), 23.976 fps, XViD ~ 1825 kbps avg, 0.384 bit/pixel
Аудио: 48 kHz, АС3 6 ch, 448 kbps, русский
Формат субтитров: SoftSub (srt)
Предупреждение: В начале фильма (4 минуты) отсутствует перевод, поскольку на DVD5 R5 начала фильма, представленного в этом рипе - нет, нет также субтитров на этот промежуток времени.

Раздача от:
Общее
Полное имя : Halo.4.Idushii.k.rassvetu.2012.P.BDRip_[Youtracker]_by_avproh.avi
Формат : AVI
Формат/Информация : Audio Video Interleave
Размер файла : 1,46 Гбайт
Продолжительность : 1 ч. 31 м.
Общий поток : 2282 Кбит/сек
Программа кодирования : VirtualDubModRus 1.5.10.2 (build 2542/release)
Библиотека кодирования : VirtualDubMod build 2542/release

Видео
Идентификатор : 0
Формат : MPEG-4 Visual
Профиль формата : Advanced Simple@L5
Параметр BVOP формата : 1
Параметр QPel формата : Нет
Параметр GMC формата : Без точки перехода
Параметр матрицы формата : Выборочная
Идентификатор кодека : XVID
Идентификатор кодека/Подсказка : XviD
Продолжительность : 1 ч. 31 м.
Битрейт : 1825 Кбит/сек
Ширина : 720 пикселей
Высота : 304 пикселя
Соотношение сторон : 2,35:1
Частота кадров : 23,976 кадра/сек
Цветовое пространство : YUV
Субдискретизация насыщенности : 4:2:0
Битовая глубина : 8 бит
Тип развёртки : Прогрессивная
Метод сжатия : С потерями
Бит/(Пиксели*Кадры) : 0.348
Размер потока : 1,16 Гбайт (80%)
Библиотека кодирования : XviD 65

Аудио
Идентификатор : 1
Формат : AC-3
Формат/Информация : Audio Coding 3
Расширение режима : CM (complete main)
Параметр Endianness формата : Big
Идентификатор кодека : 2000
Продолжительность : 1 ч. 31 м.
Вид битрейта : Постоянный
Битрейт : 448 Кбит/сек
Каналы : 6 каналов
Расположение каналов : Front: L C R, Side: L R, LFE
Частота : 48,0 КГц
Битовая глубина : 16 бит
Метод сжатия : С потерями
Размер потока : 293 Мбайт (20%)
Выравнивание : Разделение по промежуткам
Продолжительность промежутка : 42 мс. (1,00 видеокадр)
Время предзагрузки промежутка : 500 мс.


загрузка...
Правила, инструкции, FAQ!!!
Торрент  Добавлен [25 июл 2013, 11:22] Скачать торрент
Скачать торрент
[ Размер 15.3 КБ / Просмотров 6 ]

Статус  
 
Размер  1.46 ГБ
Приватный: Нет (DHT включён)
.torrent скачан  997
Как залить торрент? | Как скачать Torrent? | Как смотреть и слушать онлайн?  


     Отправить личное сообщение
   
Страница 1 из 1
Показать сообщения за:  Поле сортировки  
Начать новую тему Ответить на тему

   Похожие торренты   Автор   Ответы   Просмотры   Последнее сообщение 
В этой теме нет новых непрочитанных сообщений. Скачать торрент Проверен Halo: Сумерки / Halo: Nightfall [s01] (2014) BDRip-AVC | P

в форуме Зарубежные сериалы, Размер: 2.18 ГБ, Здоровье: 86%

Гость

0
341|396

192
546

31 мар 2015, 00:10

Гость Перейти к последнему сообщению

В этой теме нет новых непрочитанных сообщений. Скачать торрент Проверен (Hard Rock) Dirty Black Halo - Burning At The Edge Of Dawn - 2012, MP3, 192 kbps

в форуме Classic Rock & Hard Rock, Размер: 65.1 МБ, Здоровье: 100%

Anonymous

0
1|0

1
1

13 ноя 2016, 12:39

Anonymous Перейти к последнему сообщению

В этой теме нет новых непрочитанных сообщений. Скачать торрент Halo: Spartan Assault (2014) PC | Лицензия

в форуме Аркады, Размер: 2.61 ГБ, Здоровье: 100%

Anonymous

0
53|4

100
20

04 апр 2014, 22:10

Anonymous Перейти к последнему сообщению

В этой теме нет новых непрочитанных сообщений. Скачать торрент Проверен The Crüxshadows - As The Dark Against My Halo (2012) [MP3|320 кб/с]<Synthpop, Darkwave>

в форуме Зарубежная музыка, Размер: 178 МБ, Здоровье: 50%

Anonymous

0
1|2

21
0

28 авг 2015, 20:16

Anonymous Перейти к последнему сообщению

В этой теме нет новых непрочитанных сообщений. Скачать торрент Проверен (Acoustic Blues-rock) Tim 'Too Slim' Langford - Broken Halo - 2012, FLAC (tracks+.cue), lossless

в форуме Blues (Texas, Chicago, Modern and Others), Размер: 236.71 МБ, Здоровье: 0%

Anonymous

0
0|0

0
0

16 окт 2016, 16:43

Anonymous Перейти к последнему сообщению



Сейчас этот форум просматривают: нет зарегистрированных пользователей и гости: 2


Вы не можете начинать темы
Вы не можете отвечать на сообщения
Вы не можете редактировать свои сообщения
Вы не можете удалять свои сообщения
Вы не можете добавлять вложения

Перейти:  

!ВНИМАНИЕ!
 Ресурс не предоставляет электронные версии произведений, а занимается лишь коллекционированием и каталогизацией ссылок, присылаемых и публикуемых на форуме нашими читателями. Если вы являетесь правообладателем какого-либо представленного материала и не желаете чтобы ссылка на него находилась в нашем каталоге, свяжитесь с нами и мы незамедлительно удалим её. Файлы для обмена на трекере предоставлены пользователями сайта, и администрация не несёт ответственности за их содержание. Просьба не заливать файлы, защищенные авторскими правами, а также файлы нелегального содержания!