На всех торрентах на трекере установлена скидка на скачивание в размере 100 процентов(а).
 Возможность скачивания торрента НЕ зависит от ограничений при низком ратио, низком аплоаде, требуемом ратио или требуемом аплоаде.


Начать новую тему Ответить на тему
Статистика раздачи
Размер: 747.34 МБ | Добавлен: 19 июл 2013, 10:23 | Скачали: 53
Сидеров: 16  [0 байт/сек]    Личеров: 17  [0 байт/сек]
Пред. тема | След. тема 

Автор
Сообщение

СообщениеДобавлено: 19 июл 2013, 10:23 

«Всё, что не убьёт тебя, сделает богаче»



Страна: США / Atlantic Pictures (II), Laundry Films...
Жанр: фэнтези, триллер, комедия
Год выпуска: 2012
Продолжительность: 01:41:29

Перевод: Профессиональный (многоголосый, закадровый)
Оригинальная аудиодорожка: нет
Cубтитры: русский, английский

Режиссер: Рамаа Мосли / Ramaa Mosley

В ролях: Джуно Темпл, Майкл Ангарано, Алексис Бледел, Билли Магнуссен, Алиа Шокат, Бобби Мойнихэн мл., Стив Парк,Бен Раппапорт, Люси Уолтерс, Джек МакБрайер...

Описание: Признайтесь, каждому бы хотелось иметь волшебный чайник под кроватью, который выдает по первому требованию наличные?!
Но кто знает, через что должен пройти миллионер? Богатые тоже плачут, ведь чайник производит деньги, как только кто-то из окружающих чувствует боль.
Как далеко готовы зайти ради денег молодожены Джон и Эллис в погоне за богатством?






Исходник: BDRemux 1080p
Качество: BDRip
Формат: AVI

Видео: 720x304 (2.35:1), 23.976 fps, XViD ~ 892 kbps avg, 0.170 bit/pixel
Аудио: 48 kHz, MP3 2 ch, 448 kbps, русский

Раздача от:
Общее
Полное имя : Million.dlya.chaynikov.2012.P.BDRip.745MB_[Youtracker]_by_avproh.avi
Формат : AVI
Формат/Информация : Audio Video Interleave
Размер файла : 747 Мбайт
Продолжительность : 1 ч. 41 м.
Общий поток : 1029 Кбит/сек
Программа кодирования : VirtualDubModRus 1.5.10.2 (build 2542/release)
Библиотека кодирования : VirtualDubMod build 2542/release

Видео
Идентификатор : 0
Формат : MPEG-4 Visual
Профиль формата : Advanced Simple@L5
Параметр BVOP формата : 1
Параметр QPel формата : Нет
Параметр GMC формата : Без точки перехода
Параметр матрицы формата : Выборочная
Идентификатор кодека : XVID
Идентификатор кодека/Подсказка : XviD
Продолжительность : 1 ч. 41 м.
Битрейт : 892 Кбит/сек
Ширина : 720 пикселей
Высота : 304 пикселя
Соотношение сторон : 2,35:1
Частота кадров : 23,976 кадра/сек
Цветовое пространство : YUV
Субдискретизация насыщенности : 4:2:0
Битовая глубина : 8 бит
Тип развёртки : Прогрессивная
Метод сжатия : С потерями
Бит/(Пиксели*Кадры) : 0.170
Размер потока : 647 Мбайт (87%)
Библиотека кодирования : XviD 65

Аудио
Идентификатор : 1
Формат : MPEG Audio
Версия формата : Version 1
Профиль формата : Layer 3
Режим : Joint stereo
Расширение режима : MS Stereo
Идентификатор кодека : 55
Идентификатор кодека/Подсказка : MP3
Продолжительность : 1 ч. 41 м.
Вид битрейта : Постоянный
Битрейт : 128 Кбит/сек
Каналы : 2 канала
Частота : 48,0 КГц
Метод сжатия : С потерями
Размер потока : 92,9 Мбайт (12%)
Выравнивание : Соединение по промежуткам
Продолжительность промежутка : 42 мс. (1,00 видеокадр)
Время предзагрузки промежутка : 504 мс.


загрузка...
Правила, инструкции, FAQ!!!
Торрент  Добавлен [19 июл 2013, 10:23] Скачать торрент
Скачать торрент
[ Размер 15.44 КБ / Просмотров 8 ]

Статус  
 
Размер  747.34 МБ
Приватный: Нет (DHT включён)
.torrent скачан  53
Как залить торрент? | Как скачать Torrent? | Как смотреть и слушать онлайн?  


     Отправить личное сообщение
   
Страница 1 из 1
Показать сообщения за:  Поле сортировки  
Начать новую тему Ответить на тему

   Похожие торренты   Автор   Ответы   Просмотры   Последнее сообщение 
В этой теме нет новых непрочитанных сообщений. Скачать торрент Проверен Миллион способов потерять голову / A Million Ways to Die in the West (2014) BDRip 1080p | Лицензия

в форуме 720p | 1080p, Размер: 9.07 ГБ, Здоровье: 40%

Anonymous

0
83|204

35
24

06 сен 2014, 22:40

Anonymous Перейти к последнему сообщению

В этой теме нет новых непрочитанных сообщений. Скачать торрент Проверен [DSD][OF] Brass Extreme Tokyo - Rock of Brass Quintet #.01 (WEB) - 2006/2012 (Contemporary Jazz)

в форуме Hi-Res stereo (Джаз и Блюз), Размер: 435.34 МБ, Здоровье: 0%

Anonymous

0
0|0

3
0

27 авг 2016, 14:12

Anonymous Перейти к последнему сообщению

В этой теме нет новых непрочитанных сообщений. Скачать торрент Проверен (Brass-Rock) Brass-Rock группа Корабли - Дискография (6 релизов) 2012-2016 , MP3, 192-320 kbps

в форуме Русский Рок, Размер: 577.6 МБ, Здоровье: 100%

Anonymous

0
5|1

11
2

22 авг 2016, 13:06

Anonymous Перейти к последнему сообщению

В этой теме нет новых непрочитанных сообщений. Скачать торрент Проверен Для чайников - Кеннеди Д.Д. - Фен-шуй для чайников [2011, DjVu, RUS]

в форуме Эзотерика, гадания, магия, фен-шуй, Размер: 56.66 МБ, Здоровье: 0%

Anonymous

0
0|0

5
1

28 авг 2016, 22:34

Anonymous Перейти к последнему сообщению

В этой теме нет новых непрочитанных сообщений. Скачать торрент Проверен The Dirty Dozen Brass Band - The New Orleans Album (1990) /Columbia/[APE|tracks+.cue]<New Orleans Brass Bands, Funk>

в форуме Джаз, Блюз, Соул, Размер: 265.24 МБ, Здоровье: 100%

Гость

0
6|1

13
0

05 сен 2015, 22:53

Гость Перейти к последнему сообщению



Сейчас этот форум просматривают: нет зарегистрированных пользователей и гости: 1


Вы не можете начинать темы
Вы не можете отвечать на сообщения
Вы не можете редактировать свои сообщения
Вы не можете удалять свои сообщения
Вы не можете добавлять вложения

Перейти:  

!ВНИМАНИЕ!
 Ресурс не предоставляет электронные версии произведений, а занимается лишь коллекционированием и каталогизацией ссылок, присылаемых и публикуемых на форуме нашими читателями. Если вы являетесь правообладателем какого-либо представленного материала и не желаете чтобы ссылка на него находилась в нашем каталоге, свяжитесь с нами и мы незамедлительно удалим её. Файлы для обмена на трекере предоставлены пользователями сайта, и администрация не несёт ответственности за их содержание. Просьба не заливать файлы, защищенные авторскими правами, а также файлы нелегального содержания!