На всех торрентах на трекере установлена скидка на скачивание в размере 100 процентов(а).
 Возможность скачивания торрента НЕ зависит от ограничений при низком ратио, низком аплоаде, требуемом ратио или требуемом аплоаде.


Начать новую тему Ответить на тему
Статистика раздачи
Размер: 1.37 ГБ | Добавлен: 10 ноя 2012, 23:49 | Скачали: 1
Сидеров: 0  [0 байт/сек]    Личеров: 0  [0 байт/сек]
Пред. тема | След. тема 

Автор
Сообщение

СообщениеДобавлено: 10 ноя 2012, 23:49 

Универсальный солдат 4



Описание: Настоящее время. Программа «Unisol» по-прежнему актуальна и снова введена в эксплуатацию. Давним и непримиримым врагам времён Вьетнамской войны Эндрю Скотту и Люку Деверо суждено встретиться в очередной раз, дабы продолжить своё извечное противостояние и нескончаемую борьбу. Однако, новые опасности и трудности заставляют двух солдат на время объединиться пред лицом общей неприятности, что весьма ненадолго. Ясно одно: кровавый исход и брутальный финал неизбежен…


Производство: США
Год выпуска: 2012 г.
Жанр: Фантастика, Боевик
Продолжительность: 01:53:20
Мировая премьера: 23 августа 2012
Российская премьера: 4 октября 2012, «Люксор»
Перевод: Профессиональный (полное дублирование) [Лицензия]

Режиссер: Джон Хайамс / John Hyams

В фильме снимались: Жан-Клод Ван Дамм, Дольф Лундгрен, Скотт Эдкинс, Кристофер Ван Варенберг, Дэвид Дженсен, Остин Нолти, Рой Джонс мл., Мария Боннер, Рас Блэквелл, Джеймс ДюМонт






Качество видео: HDRip
Формат видео: AVI
Видео кодек: XviD
Аудио кодек: AC3

Видео: 720x304, 1279 Кбит/сек, 23,976 кадра/сек
Аудио: AC3 (6 ch), 448 Кбит/сек, 48,0 КГц
Cубтитры: отсутствуют

Общее

Полное имя : Universalnui.Soldat.4.2012.D.HDRip.1400Mb.avi

Формат : AVI

Формат/Информация : Audio Video Interleave

Размер файла : 1,37 Гбайт

Продолжительность : 1 ч. 53 м.

Общий поток : 1736 Кбит/сек

Программа кодирования : VirtualDubMod 1.5.10.3 | http://www.virtualdub-fr.org || (build 2550/release)

Библиотека кодирования : VirtualDubMod build 2550/release

Видео

Идентификатор : 0

Формат : MPEG-4 Visual

Профиль формата : Advanced Simple@L5

Параметр BVOP формата : 2

Параметр QPel формата : Нет

Параметр GMC формата : Без точки перехода

Параметр матрицы формата : Выборочная

Идентификатор кодека : XVID

Идентификатор кодека/Подсказка : XviD

Продолжительность : 1 ч. 53 м.

Битрейт : 1279 Кбит/сек

Ширина : 720 пикселей

Высота : 304 пикселя

Соотношение сторон : 2,35:1

Частота кадров : 23,976 кадра/сек

Цветовое пространство : YUV

Субдискретизация насыщенности : 4:2:0

Битовая глубина : 8 бит

Тип развёртки : Прогрессивная

Метод сжатия : С потерями

Бит/(Пиксели*Кадры) : 0.244

Размер потока : 1,01 Гбайт (74%)

Библиотека кодирования : XviD 1.2.1 (UTC 2008-12-04)

Аудио

Идентификатор : 1

Формат : AC-3

Формат/Информация : Audio Coding 3

Расширение режима : CM (complete main)

Параметр Endianness формата : Big

Идентификатор кодека : 2000

Продолжительность : 1 ч. 53 м.

Вид битрейта : Постоянный

Битрейт : 448 Кбит/сек

Каналы : 6 каналов

Расположение каналов : Front: L C R, Side: L R, LFE

Частота : 48,0 КГц

Битовая глубина : 16 бит

Метод сжатия : С потерями

Размер потока : 363 Мбайт (26%)

Выравнивание : Разделение по промежуткам

Продолжительность промежутка : 42 мс. (1,00 видеокадр)

Время предзагрузки промежутка : 500 мс.


Приятного просмотра!
загрузка...
Правила, инструкции, FAQ!!!
Торрент  Добавлен [10 ноя 2012, 23:49] Скачать торрент
Скачать торрент
[ Размер 14.17 КБ / Просмотров 20 ]

Статус
Проверен 
 
Размер  1.37 ГБ
Приватный: Нет (DHT включён)
.torrent скачан  1
Как залить торрент? | Как скачать Torrent? | Как смотреть и слушать онлайн?  


     Отправить личное сообщение
   
Страница 1 из 1
Показать сообщения за:  Поле сортировки  
Начать новую тему Ответить на тему

   Похожие торренты   Автор   Ответы   Просмотры   Последнее сообщение 
В этой теме нет новых непрочитанных сообщений. Скачать торрент Проверен Универсальный солдат 4 в 3Д / Universal Soldier: Day of Reckoning 3D (Джон Хайамс / John Hyams) [2012, Боевик, Фантастика, Триллер, BDrip-AVC] Half OverUnder / Вертикальная анаморфная стереопара

в форуме HD-Video в 3D, Размер: 10.05 ГБ, Здоровье: 100%

Anonymous

0
54|18

115
0

11 июл 2014, 12:20

Anonymous Перейти к последнему сообщению

В этой теме нет новых непрочитанных сообщений. Скачать торрент Проверен Универсальный солдат 4 / Universal Soldier: Day of Reckoning (2012) BDRip 1080p | Лицензия

в форуме 720p | 1080p, Размер: 7.65 ГБ, Здоровье: 100%

Anonymous

0
49|4

107
12

29 ноя 2014, 20:01

Anonymous Перейти к последнему сообщению

В этой теме нет новых непрочитанных сообщений. Скачать торрент Проверен Я солдат / I am soldier (2014) HDRip | L2

в форуме Боевики, Размер: 1.45 ГБ, Здоровье: 100%

Anonymous

0
1313|146

56
7560

07 сен 2014, 21:31

Anonymous Перейти к последнему сообщению

В этой теме нет новых непрочитанных сообщений. Скачать торрент Большой солдат / Little Big Soldier / Da bing xiao jiang (2010) HDRip [H.264]

в форуме Боевики, Размер: 1.47 ГБ, Здоровье: 100%

Anonymous

0
4|2

56
0

22 янв 2014, 06:21

Anonymous Перейти к последнему сообщению

В этой теме нет новых непрочитанных сообщений. Скачать торрент 2012 / 2012 (Роланд Эммерих / Roland Emmerich) [2009 г., Боевик, приключения, драма, фантастика, HDRip] Dub

в форуме Фантастика, Фэнтези, Размер: 1.47 ГБ, Здоровье: 100%

Anonymous

0
1|0

159
0

12 фев 2014, 08:16

Anonymous Перейти к последнему сообщению



Сейчас этот форум просматривают: нет зарегистрированных пользователей и гости: 2


Вы не можете начинать темы
Вы не можете отвечать на сообщения
Вы не можете редактировать свои сообщения
Вы не можете удалять свои сообщения
Вы не можете добавлять вложения

Перейти:  

!ВНИМАНИЕ!
 Ресурс не предоставляет электронные версии произведений, а занимается лишь коллекционированием и каталогизацией ссылок, присылаемых и публикуемых на форуме нашими читателями. Если вы являетесь правообладателем какого-либо представленного материала и не желаете чтобы ссылка на него находилась в нашем каталоге, свяжитесь с нами и мы незамедлительно удалим её. Файлы для обмена на трекере предоставлены пользователями сайта, и администрация не несёт ответственности за их содержание. Просьба не заливать файлы, защищенные авторскими правами, а также файлы нелегального содержания!