На всех торрентах на трекере установлена скидка на скачивание в размере 100 процентов(а).
 Возможность скачивания торрента НЕ зависит от ограничений при низком ратио, низком аплоаде, требуемом ратио или требуемом аплоаде.


Начать новую тему Ответить на тему
Статистика раздачи
Размер: 1.46 ГБ | Добавлен: 25 янв 2015, 11:02 | Скачали: 4
Сидеров: 13  [0 байт/сек]    Личеров: 6  [0 байт/сек]
Пред. тема | След. тема 

Автор
Сообщение

СообщениеДобавлено: 25 янв 2015, 11:02 

Страна: США
Жанр: фантастика, боевик, триллер, драма, криминал
Год выпуска: 1991
Продолжительность: 01:38:13




Перевод: Профессиональный (двухголосый закадровый) студия Ракурс по заказу компании Екатеринбург арт
Cубтитры: нет




Режиссер: Льюис Тиг / Lewis Teague
В ролях: Рутгер Хауэр, Мими Роджерс, Джоан Чэнь, Джеймс Римар, Стивен Тоболовски, Бейзил Уоллес, Гранд Л. Буш, Дэнис Форест, Гленн Пламмер, Белль Эйвери




Описание: Фрэнк Уоррен, его любовница Ноэл и лучший друг Сэм совершают дерзкое, но тщательно продуманное ограбление Всемирного торгового центра, похитив бриллианты на многие миллионы долларов. При уходе с места ограбления Фрэнк был ранен своими же подельниками и попал в руки полиции, но «камушки» успел спрятать. Фрэнка помещают в тюрьму, где нет ни стен, ни решеток, но на каждого заключенного надевается электронный ошейник, подключенный к ошейнику другого заключенного. Никто не знает своей пары, и стоит отойти друг от друга далее, чем на 100 метров, как взрывается бомба, вмонтированная в ошейник. Фрэнку удается найти свою пару, бежать они решаются вместе. По следам беглецов устремляются предатели, рассчитывающие выйти на спрятанные бриллианты, и… директор тюрьмы, организовавший побег.









Качество видео: DVDRip
Формат видео: AVI
Видео: 704x368 (1.91:1), 25 fps, XviD build 65 ~1667 kbps avg, 0.26 bit/pixel
Аудио: 48 kHz, AC3 Dolby Digital, 3/2 (L,C,R,l,r) + LFE ch, ~448 kbps
General
Complete name : C:\Рипы\Wedlock.1991.RUS.DVDRip.XviD.AC3.avi
Format : AVI
Format/Info : Audio Video Interleave
File size : 1.46 GiB
Duration : 1h 38mn
Overall bit rate : 2 125 Kbps
Writing application : VirtualDubMod 1.5.10.2 (build 2540/release)
Writing library : VirtualDubMod build 2540/release

Video
ID : 0
Format : MPEG-4 Visual
Format profile : Advanced Simple@L5
Format settings, BVOP : 1
Format settings, QPel : No
Format settings, GMC : No warppoints
Format settings, Matrix : Custom
Codec ID : XVID
Codec ID/Hint : XviD
Duration : 1h 38mn
Bit rate : 1 668 Kbps
Width : 704 pixels
Height : 368 pixels
Display aspect ratio : 1.913
Frame rate : 25.000 fps
Color space : YUV
Chroma subsampling : 4:2:0
Bit depth : 8 bits
Scan type : Progressive
Compression mode : Lossy
Bits/(Pixel*Frame) : 0.257
Stream size : 1.14 GiB (78%)
Writing library : XviD 65

Audio
ID : 1
Format : AC-3
Format/Info : Audio Coding 3
Mode extension : CM (complete main)
Format settings, Endianness : Big
Codec ID : 2000
Duration : 1h 38mn
Bit rate mode : Constant
Bit rate : 448 Kbps
Channel(s) : 6 channels
Channel positions : Front: L C R, Side: L R, LFE
Sampling rate : 48.0 KHz
Bit depth : 16 bits
Compression mode : Lossy
Stream size : 315 MiB (21%)
Alignment : Split accross interleaves
Interleave, duration : 40 ms (1.00 video frame)
Interleave, preload duration : 500 ms
загрузка...
Правила, инструкции, FAQ!!!
Торрент  Добавлен [25 янв 2015, 11:02] Скачать торрент
Скачать торрент
[ Размер 15.08 КБ / Просмотров 17 ]

Статус
Проверен 
 
Размер  1.46 ГБ
Приватный: Нет (DHT включён)
.torrent скачан  4
Как залить торрент? | Как скачать Torrent? | Как смотреть и слушать онлайн?  


     Отправить личное сообщение
   
Страница 1 из 1
Показать сообщения за:  Поле сортировки  
Начать новую тему Ответить на тему

   Похожие торренты   Автор   Ответы   Просмотры   Последнее сообщение 
В этой теме нет новых непрочитанных сообщений. Скачать торрент Оттепель / The Thaw (Марк А. Льюис / Mark A. Lewis) [2009 г., ужасы, фантастика, триллер, HDRip]

в форуме Ужасы, Размер: 1.48 ГБ, Здоровье: 0%

Anonymous

0
0|0

73
2

15 апр 2014, 08:17

Anonymous Перейти к последнему сообщению

В этой теме нет новых непрочитанных сообщений. Скачать торрент Проверен Lewis Carroll / Льюис Кэрролл - Alice in Wonderland. Through the Looking-Glass / Алиса в Стране Чудес. Алиса в Зазеркалье [1991, DjVu, RUS]

в форуме Детская литература, Размер: 5.37 МБ, Здоровье: 100%

Гость

0
21|8

35
1

02 апр 2016, 14:20

Гость Перейти к последнему сообщению

В этой теме нет новых непрочитанных сообщений. Скачать торрент Проверен Люди и деньги - Michael Lewis / Майкл Льюис - Liar's Poker / Покер Лжецов [1989, PDF, RUS]

в форуме Зарубежная литература (XX и XXI век), Размер: 1.19 МБ, Здоровье: 100%

Anonymous

0
34|11

5
0

08 сен 2016, 20:04

Anonymous Перейти к последнему сообщению

В этой теме нет новых непрочитанных сообщений. Скачать торрент Clive Staples Lewis / Клайв Стейплз Льюис - The Chronicles of Narnia / Хроники Нарнии (7 книг) [1950 - 56, fb2]

в форуме Детская литература, Размер: 15.92 МБ, Здоровье: 100%

Anonymous

0
56|19

112
0

27 янв 2014, 11:51

Anonymous Перейти к последнему сообщению

В этой теме нет новых непрочитанных сообщений. Скачать торрент Проверен [MP4 640x360] Смертельные игры / Arena (2011) DVDRip

в форуме Видео для смартфонов и КПК, Размер: 579.63 МБ, Здоровье: 50%

Anonymous

0
1|2

38
0

25 окт 2014, 23:22

Anonymous Перейти к последнему сообщению



Сейчас этот форум просматривают: нет зарегистрированных пользователей и гости: 1


Вы не можете начинать темы
Вы не можете отвечать на сообщения
Вы не можете редактировать свои сообщения
Вы не можете удалять свои сообщения
Вы не можете добавлять вложения

Перейти:  

!ВНИМАНИЕ!
 Ресурс не предоставляет электронные версии произведений, а занимается лишь коллекционированием и каталогизацией ссылок, присылаемых и публикуемых на форуме нашими читателями. Если вы являетесь правообладателем какого-либо представленного материала и не желаете чтобы ссылка на него находилась в нашем каталоге, свяжитесь с нами и мы незамедлительно удалим её. Файлы для обмена на трекере предоставлены пользователями сайта, и администрация не несёт ответственности за их содержание. Просьба не заливать файлы, защищенные авторскими правами, а также файлы нелегального содержания!