На всех торрентах на трекере установлена скидка на скачивание в размере 100 процентов(а).
 Возможность скачивания торрента НЕ зависит от ограничений при низком ратио, низком аплоаде, требуемом ратио или требуемом аплоаде.


Начать новую тему Ответить на тему
Статистика раздачи
Размер: 1.26 ГБ | Добавлен: 20 янв 2015, 17:44 | Скачали: 112
Сидеров: 3242  [0 байт/сек]    Личеров: 1766  [0 байт/сек]
Пред. тема | След. тема 

Автор
Сообщение

СообщениеДобавлено: 20 янв 2015, 17:44 

Название: Ошибка времени
Оригинальное название: Time Lapse
Год выпуска: 2014
Жанр: Фантастика, триллер
Выпущено: США, Uncooperative Pictures
Режиссер: Брэдли Кинг
В ролях: Даниэль Панабэйкер, Мэтт О`Лири, Джордж Финн, Эймин Джозеф, Джейсон Спайсэк, Дэвид Фильоли, Шэрон Мофан, Джудит Дрэйк, Марк С. Хэнсон

О фильме:
Трое приятелей — подающий надежды художник и по совместительству управдом Финн, его девушка официантка и писательница Кэлли и их друг Джаспер, помешанный на собачьих гонках, — находят в комнате соседа-ученого странное изобретение — машину, печатающую фотографии из будущего дня. Теперь Джаспер знает, на каких собак нужно ставить, и Финн и Кэлли могут, наконец, посвятить себя любимым занятиям. Но вскоре визуальные пророчества загадочной машины начинают обескураживать и пугать героев…



Качество: WEB-DLRip
Видео: XviD, 1537 Кбит/с, 720x400
Аудио: AC3, 2 ch, 192 Кбит/с
Продолжительность: 01:43:47
Перевод: Любительский двухголосый закадровый [RAIM & GUGU]

Семпл

General
Complete name : Time.Lapse.2014.HDRip.XviD.avi
Format : AVI
Format/Info : Audio Video Interleave
File size : 1.26 GiB
Duration : 1h 43mn
Overall bit rate : 1 738 Kbps
Writing application : VirtualDubMod 1.5.10.2 (build 2542/release)
Writing library : VirtualDubMod build 2542/release

Video
ID : 0
Format : MPEG-4 Visual
Format profile : Advanced Simple@L5
Format settings, BVOP : 2
Format settings, QPel : No
Format settings, GMC : No warppoints
Format settings, Matrix : Default (H.263)
Muxing mode : Packed bitstream
Codec ID : XVID
Codec ID/Hint : XviD
Duration : 1h 43mn
Bit rate : 1 537 Kbps
Width : 720 pixels
Height : 400 pixels
Display aspect ratio : 16:9
Frame rate : 23.976 fps
Color space : YUV
Chroma subsampling : 4:2:0
Bit depth : 8 bits
Scan type : Progressive
Compression mode : Lossy
Bits/(Pixel*Frame) : 0.223
Stream size : 1.11 GiB (88%)
Writing library : XviD 64

Audio
ID : 1
Format : AC-3
Format/Info : Audio Coding 3
Mode extension : CM (complete main)
Format settings, Endianness : Big
Codec ID : 2000
Duration : 1h 43mn
Bit rate mode : Constant
Bit rate : 192 Kbps
Channel(s) : 2 channels
Channel positions : Front: L R
Sampling rate : 48.0 KHz
Bit depth : 16 bits
Compression mode : Lossy
Stream size : 143 MiB (11%)
Alignment : Split accross interleaves
Interleave, duration : 42 ms (1.00 video frame)
Interleave, preload duration : 500 ms
загрузка...
Правила, инструкции, FAQ!!!
Торрент  Добавлен [20 янв 2015, 17:44] Скачать торрент
Скачать торрент
[ Размер 13.25 КБ / Просмотров 10 ]

Статус
Проверен 
 
Размер  1.26 ГБ
Приватный: Нет (DHT включён)
.torrent скачан  112
Как залить торрент? | Как скачать Torrent? | Как смотреть и слушать онлайн?  


     Отправить личное сообщение
   
Страница 1 из 1
Показать сообщения за:  Поле сортировки  
Начать новую тему Ответить на тему

   Похожие торренты   Автор   Ответы   Просмотры   Последнее сообщение 
В этой теме нет новых непрочитанных сообщений. Скачать торрент Проверен Ошибка времени / Time Lapse (2014) WEB-DL [H.264/720p-LQ]

в форуме 720p | 1080p, Размер: 3.51 ГБ, Здоровье: 100%

Гость

0
300|198

53
0

20 янв 2015, 23:42

Гость Перейти к последнему сообщению

В этой теме нет новых непрочитанных сообщений. Скачать торрент Проверен Ошибка времени / Time Lapse (2014) BDRip 1080p | L2

в форуме 720p | 1080p, Размер: 7.93 ГБ, Здоровье: 95%

Гость

0
116|121

246
110

13 ноя 2015, 16:02

Гость Перейти к последнему сообщению

В этой теме нет новых непрочитанных сообщений. Скачать торрент Проверен Ошибка времени / Time Lapse (2014) BDRip [576p] iPad

в форуме Фильмы для iPod, iPhone, iPad, Размер: 1.82 ГБ, Здоровье: 100%

Anonymous

0
22|1

51
0

13 сен 2015, 01:23

Anonymous Перейти к последнему сообщению

В этой теме нет новых непрочитанных сообщений. Скачать торрент Проверен (Rock) Ошибка Птицы - (2005) - Ошибка Птицы/ (2010) - Ошибка Птицы 2, MP3, 128 - 320 kbps

в форуме Русский Рок, Размер: 132.58 МБ, Здоровье: 0%

Anonymous

0
0|0

5
0

21 авг 2016, 07:46

Anonymous Перейти к последнему сообщению

В этой теме нет новых непрочитанных сообщений. Скачать торрент Проверен Дмитрий Емец | Ошибка грифона (2015) [FB2]

в форуме Фантастика, фэнтези, Размер: 1.2 МБ, Здоровье: 100%

Гость

0
15|2

112
6

22 июн 2015, 23:45

Гость Перейти к последнему сообщению



Сейчас этот форум просматривают: нет зарегистрированных пользователей и гости: 2


Вы не можете начинать темы
Вы не можете отвечать на сообщения
Вы не можете редактировать свои сообщения
Вы не можете удалять свои сообщения
Вы не можете добавлять вложения

Перейти:  

!ВНИМАНИЕ!
 Ресурс не предоставляет электронные версии произведений, а занимается лишь коллекционированием и каталогизацией ссылок, присылаемых и публикуемых на форуме нашими читателями. Если вы являетесь правообладателем какого-либо представленного материала и не желаете чтобы ссылка на него находилась в нашем каталоге, свяжитесь с нами и мы незамедлительно удалим её. Файлы для обмена на трекере предоставлены пользователями сайта, и администрация не несёт ответственности за их содержание. Просьба не заливать файлы, защищенные авторскими правами, а также файлы нелегального содержания!