На всех торрентах на трекере установлена скидка на скачивание в размере 100 процентов(а).
 Возможность скачивания торрента НЕ зависит от ограничений при низком ратио, низком аплоаде, требуемом ратио или требуемом аплоаде.


Начать новую тему Ответить на тему
Статистика раздачи
Размер: 2.18 ГБ | Добавлен: 07 янв 2015, 11:53 | Скачали: 1
Сидеров: 0  [0 байт/сек]    Личеров: 0  [0 байт/сек]
Пред. тема | След. тема 

Автор
Сообщение

СообщениеДобавлено: 07 янв 2015, 11:53 

Год выпуска: 2005
Производство: США
Жанр: Фантастика, боевик, приключения

Режиссер: Карин Кусама
Актеры: Шарлиз Терон, Мартон Чокаш, Джонни Ли Миллер, Софи Оконедо, Фрэнсис МакДорманд, Пит Постлетуэйт, Амелия Уорнер, Кэролайн Чикези, Николай Кински, Пэтерсон Джозеф

Описание фильма:
В 21-ом веке свирепый вирус уничтожил большую часть человечества, а оставшихся в живых заставил изолироваться в одном-единственном городе, защищенном специальным куполом. Именно там действует таинственный агент Эон Флакс, мотивы которой необъяснимы, а главной целью является видный политический деятель…

Перевод: Дублированный
Язык субтитров: Русский, английский
Вид субтитров: Вшитые (отключаемые)



Продолжительность: 01:32:51
Качество видео: BDRip (AVC)

Видеокодек: MPEG-4 AVC
Битрейт видео: ~2465 Кбит/с
Размер кадра: 1040x442
Аудио:
1. AC3, 6 ch, 448 Кбит/с - русский
2. AC3, 6 ch, 448 Кбит/с - английский
Общее
Уникальный идентификатор : 177284381388761922962091029428927673240 (0x855FBAD95798AAA58B9F6A03D25F3398)
Полное имя : C:\NNM\Эон Флакс\Aeon Flaks 2005 BDRip AVC.mkv
Формат : Matroska
Версия формата : Version 4 / Version 2
Размер файла : 2,18 Гбайт
Продолжительность : 1 ч. 32 м.
Общий поток : 3359 Кбит/сек
Программа кодирования : mkvmerge v5.9.0 ('On The Loose') built on Dec 15 2012 16:39:58
Библиотека кодирования : libebml v1.3.0 + libmatroska v1.4.0

Видео
Идентификатор : 1
Формат : AVC
Формат/Информация : Advanced Video Codec
Профиль формата :
Параметр CABAC формата : Да
Параметр ReFrames формата : 10 кадров
Идентификатор кодека : V_MPEG4/ISO/AVC
Продолжительность : 1 ч. 32 м.
Битрейт : 2465 Кбит/сек
Ширина : 1040 пикселей
Высота : 442 пикселя
Соотношение сторон : 2,35:1
Частота кадров : 23,976 кадра/сек
Цветовое пространство : YUV
Субдискретизация насыщенности : 4:2:0
Битовая глубина : 8 бит
Тип развёртки : Прогрессивная
Бит/(Пиксели*Кадры) : 0.224
Размер потока : 1,55 Гбайт (71%)
Заголовок : potroks
Библиотека кодирования : x264 core 130 r2273 b3065e6
Настройки программы : cabac=1 / ref=10 / deblock=1:-3:-3 / analyse=0x3:0x133 / me=umh / subme=11 / psy=1 / psy_rd=0.96:0.00 / mixed_ref=1 / me_range=48 / chroma_me=1 / trellis=2 / 8x8dct=1 / cqm=0 / deadzone=21,11 / fast_pskip=0 / chroma_qp_offset=-2 / threads=9 / lookahead_threads=7 / sliced_threads=0 / nr=0 / decimate=0 / interlaced=0 / bluray_compat=0 / constrained_intra=0 / bframes=11 / b_pyramid=2 / b_adapt=2 / b_bias=0 / direct=3 / weightb=1 / open_gop=0 / weightp=2 / keyint=250 / keyint_min=23 / scenecut=40 / intra_refresh=0 / rc_lookahead=60 / rc=2pass / mbtree=0 / bitrate=2465 / ratetol=1.0 / qcomp=0.70 / qpmin=0 / qpmax=69 / qpstep=4 / cplxblur=20.0 / qblur=0.5 / vbv_maxrate=50000 / vbv_bufsize=62500 / nal_hrd=none / ip_ratio=1.35 / pb_ratio=1.25 / aq=1:0.90
Язык : English
Default : Да
Forced : Нет

Аудио #1
Идентификатор : 2
Формат : AC-3
Формат/Информация : Audio Coding 3
Расширение режима : CM (complete main)
Идентификатор кодека : A_AC3
Продолжительность : 1 ч. 32 м.
Вид битрейта : Постоянный
Битрейт : 448 Кбит/сек
Каналы : 6 каналов
Расположение каналов : Front: L C R, Side: L R, LFE
Частота : 48,0 КГц
Битовая глубина : 16 бит
Метод сжатия : С потерями
Размер потока : 298 Мбайт (13%)
Заголовок : Dub | DD 5.1 @ 448 kbps
Язык : Russian
Default : Да
Forced : Нет

Аудио #2
Идентификатор : 3
Формат : AC-3
Формат/Информация : Audio Coding 3
Расширение режима : CM (complete main)
Идентификатор кодека : A_AC3
Продолжительность : 1 ч. 32 м.
Вид битрейта : Постоянный
Битрейт : 448 Кбит/сек
Каналы : 6 каналов
Расположение каналов : Front: L C R, Side: L R, LFE
Частота : 48,0 КГц
Битовая глубина : 16 бит
Метод сжатия : С потерями
Размер потока : 298 Мбайт (13%)
Заголовок : Original | DD 5.1 @ 448 kbps
Язык : English
Default : Нет
Forced : Нет

Текст #1
Идентификатор : 4
Формат : UTF-8
Идентификатор кодека : S_TEXT/UTF8
Идентификатор кодека/Информация : UTF-8 Plain Text
Язык : Russian
Default : Нет
Forced : Нет

Текст #2
Идентификатор : 5
Формат : UTF-8
Идентификатор кодека : S_TEXT/UTF8
Идентификатор кодека/Информация : UTF-8 Plain Text
Язык : English
Default : Нет
Forced : Нет

Меню
00:00:00.000 : en:(01)00:00:00:000
00:03:43.264 : en:(02)00:03:43:264
00:05:27.785 : en:(03)00:05:27:785
00:07:27.530 : en:(04)00:07:27:530
00:09:48.754 : en:(05)00:09:48:754
00:11:34.693 : en:(06)00:11:34:693
00:14:50.389 : en:(07)00:14:50:389
00:18:12.965 : en:(08)00:18:12:965
00:19:22.786 : en:(09)00:19:22:786
00:22:08.493 : en:(10)00:22:08:493
00:24:17.455 : en:(11)00:24:17:455
00:26:32.173 : en:(12)00:26:32:173
00:29:07.829 : en:(13)00:29:07:829
00:31:02.986 : en:(14)00:31:02:986
00:33:25.878 : en:(15)00:33:25:878
00:36:20.011 : en:(16)00:36:20:011
00:38:10.871 : en:(17)00:38:10:871
00:42:48.357 : en:(18)00:42:48:357
00:43:34.987 : en:(19)00:43:34:987
00:44:40.093 : en:(20)00:44:40:093
00:48:05.966 : en:(21)00:48:05:966
00:50:32.112 : en:(22)00:50:32:112
00:52:23.640 : en:(23)00:52:23:640
00:54:07.786 : en:(24)00:54:07:786
00:59:31.901 : en:(25)00:59:31:901
01:00:22.743 : en:(26)01:00:22:743
01:02:47.305 : en:(27)01:02:47:305
01:04:47.383 : en:(28)01:04:47:383
01:06:50.673 : en:(29)01:06:50:673
01:08:09.376 : en:(30)01:08:09:376
01:08:25.934 : en:(31)01:08:25:934
01:10:44.740 : en:(32)01:10:44:740
01:15:08.628 : en:(33)01:15:08:628
01:21:09.447 : en:(34)01:21:09:447
01:24:23.474 : en:(35)01:24:23:474
01:25:49.852 : en:(36)01:25:49:852
01:32:50.564 : en:(37)01:32:50:564
Скриншоты:


загрузка...
Правила, инструкции, FAQ!!!
Торрент  Добавлен [07 янв 2015, 11:53] Скачать торрент
Скачать торрент
[ Размер 11.57 КБ / Просмотров 5 ]

Статус
Проверен 
 
Размер  2.18 ГБ
Приватный: Нет (DHT включён)
.torrent скачан  1
Как залить торрент? | Как скачать Torrent? | Как смотреть и слушать онлайн?  


     Отправить личное сообщение
   
Страница 1 из 1
Показать сообщения за:  Поле сортировки  
Начать новую тему Ответить на тему

   Похожие торренты   Автор   Ответы   Просмотры   Последнее сообщение 
В этой теме нет новых непрочитанных сообщений. Скачать торрент Проверен (Progressive Metal/Rock/Instrumental) In Flux - In Flux - 2016, MP3, 320 kbps

в форуме Heavy, Power, Progressive (Metal), Размер: 66.32 МБ, Здоровье: 0%

Anonymous

0
0|0

0
0

09 окт 2016, 15:45

Anonymous Перейти к последнему сообщению

В этой теме нет новых непрочитанных сообщений. Скачать торрент Проверен (Melodic Death Metal) [LP] [24/192] Sons Of Aeon - Sons Of Aeon - 2013, FLAC (image+.cue)

в форуме Зарубежный рок (оцифровки), Размер: 2.18 ГБ, Здоровье: 0%

Anonymous

0
0|0

2
0

25 авг 2016, 19:38

Anonymous Перейти к последнему сообщению

В этой теме нет новых непрочитанных сообщений. Скачать торрент Проверен (Progressive Metal / Rock) Aeon Rising - Aeon Rising - 2015, MP3, 320 kbps

в форуме Heavy, Power, Progressive (Metal), Размер: 88.48 МБ, Здоровье: 0%

Anonymous

0
0|0

0
0

08 окт 2016, 13:36

Anonymous Перейти к последнему сообщению

В этой теме нет новых непрочитанных сообщений. Скачать торрент Проверен (Progressive Metal) Aeon Zen - Ephemera (2014) [MP3, 320 kbps]

в форуме Heavy, Power, Progressive (Metal), Размер: 96.33 МБ, Здоровье: 0%

Anonymous

0
0|0

0
0

09 окт 2016, 09:08

Anonymous Перейти к последнему сообщению

В этой теме нет новых непрочитанных сообщений. Скачать торрент Проверен (Progressive Metal) Aeon Zen - Дискография (2009 - 2013), MP3, 320 kbps

в форуме Heavy, Power, Progressive (Metal), Размер: 695.52 МБ, Здоровье: 0%

Anonymous

0
0|0

0
0

09 окт 2016, 14:13

Anonymous Перейти к последнему сообщению



Сейчас этот форум просматривают: нет зарегистрированных пользователей и гости: 3


Вы не можете начинать темы
Вы не можете отвечать на сообщения
Вы не можете редактировать свои сообщения
Вы не можете удалять свои сообщения
Вы не можете добавлять вложения

Перейти:  

!ВНИМАНИЕ!
 Ресурс не предоставляет электронные версии произведений, а занимается лишь коллекционированием и каталогизацией ссылок, присылаемых и публикуемых на форуме нашими читателями. Если вы являетесь правообладателем какого-либо представленного материала и не желаете чтобы ссылка на него находилась в нашем каталоге, свяжитесь с нами и мы незамедлительно удалим её. Файлы для обмена на трекере предоставлены пользователями сайта, и администрация не несёт ответственности за их содержание. Просьба не заливать файлы, защищенные авторскими правами, а также файлы нелегального содержания!