На всех торрентах на трекере установлена скидка на скачивание в размере 100 процентов(а).
 Возможность скачивания торрента НЕ зависит от ограничений при низком ратио, низком аплоаде, требуемом ратио или требуемом аплоаде.


Начать новую тему Ответить на тему
Статистика раздачи
Размер: 693.1 МБ | Добавлен: 06 янв 2015, 10:39 | Скачали: 0
Сидеров: 0  [0 байт/сек]    Личеров: 0  [0 байт/сек]
Пред. тема | След. тема 

Автор
Сообщение

СообщениеДобавлено: 06 янв 2015, 10:39 

Год выпуска: 1996
Производство: США
Жанр: Фантастика, боевик

Режиссер: Джон Хесс
Актеры: Оливье Грюнер, Линдси Ли Джинтер, Ли де Бруа, Нилс Аллен Стюарт, Эмбер Смит, Шари Белафонте, Гэбриэл Делл, Скотт Вэлентайн, Алекс Хайд-Уайт

Описание фильма:
Оливье Грюнер в роли так называемого хранителя прилетает на Марс, чтобы выяснить, кто и за что убил его брата, а потом отомстить. Едва он появляется в городе, где царит полный беспредел, - на Марсе добывают драгоценное топливо сайлекс - как на него нападают толпы убийц. Грюнер начинает расследование, начав с извлечения из мозга брата фрагментов памяти - тело находилось на криогенной поддержке. Они помогают ему решить загадку. Неплохой футуристический боевик с запашком декаденса.

Перевод: Профессиональный многоголосый
Субтитры: Отсутствуют



Продолжительность: 01:28:42
Качество видео: DVDRip

Видеокодек: XviD
Битрейт видео: ~987 Кбит/с
Размер кадра: 544x400
Аудиокодек: MP3 2 ch
Битрейт аудио: 96 Кбит/с

Общее
Полное имя : C:\NNM\Марс\Mars 1996 DVDRip.avi
Формат : AVI
Формат/Информация : Audio Video Interleave
Размер файла : 693 Мбайт
Продолжительность : 1 ч. 28 м.
Общий поток : 1092 Кбит/сек
Программа кодирования : VirtualDubMod 1.5.10.1 (build 2366/release)
Библиотека кодирования : VirtualDubMod build 2366/release

Видео
Идентификатор : 0
Формат : MPEG-4 Visual
Параметр BVOP формата : 1
Параметр QPel формата : Нет
Параметр GMC формата : Без точки перехода
Параметр матрицы формата : Default (H.263)
Режим смешивания : Сжатый битовый поток
Идентификатор кодека : DX50
Идентификатор кодека/Подсказка : DivX 5
Продолжительность : 1 ч. 28 м.
Битрейт : 987 Кбит/сек
Ширина : 544 пикселя
Высота : 400 пикселей
Соотношение сторон : 4:3
Частота кадров : 25,000 кадров/сек
Цветовое пространство : YUV
Субдискретизация насыщенности : 4:2:0
Битовая глубина : 8 бит
Тип развёртки : Прогрессивная
Метод сжатия : С потерями
Бит/(Пиксели*Кадры) : 0.181
Размер потока : 626 Мбайт (90%)
Библиотека кодирования : DivX 5.0.5 (UTC 2003-04-24)

Аудио
Идентификатор : 1
Формат : MPEG Audio
Версия формата : Version 1
Профиль формата : Layer 3
Режим : Joint stereo
Расширение режима : Intensity Stereo + MS Stereo
Идентификатор кодека : 55
Идентификатор кодека/Подсказка : MP3
Продолжительность : 1 ч. 28 м.
Вид битрейта : Постоянный
Битрейт : 96,0 Кбит/сек
Каналы : 2 канала
Частота : 44,1 КГц
Метод сжатия : С потерями
Размер потока : 60,9 Мбайт (9%)
Выравнивание : Разделение по промежуткам
Продолжительность промежутка : 40 мс. (1,00 видеокадр)
Время предзагрузки промежутка : 500 мс.
Скриншоты:
[center]
загрузка...
Правила, инструкции, FAQ!!!
Торрент  Добавлен [06 янв 2015, 10:39] Скачать торрент
Скачать торрент
[ Размер 14.19 КБ / Просмотров 5 ]

Статус
Проверен 
 
Размер  693.1 МБ
Приватный: Нет (DHT включён)
.torrent скачан  0
Как залить торрент? | Как скачать Torrent? | Как смотреть и слушать онлайн?  


     Отправить личное сообщение
   
Страница 1 из 1
Показать сообщения за:  Поле сортировки  
Начать новую тему Ответить на тему

   Похожие торренты   Автор   Ответы   Просмотры   Последнее сообщение 
В этой теме нет новых непрочитанных сообщений. Скачать торрент Миссия на Марс / Mission to Mars (2000) BDRip | P2

в форуме Фантастика, Фэнтези, Размер: 1.46 ГБ, Здоровье: 100%

Anonymous

0
20|1

54
216

25 фев 2014, 21:14

Anonymous Перейти к последнему сообщению

В этой теме нет новых непрочитанных сообщений. Скачать торрент Миссия на Марс / Mission to Mars (2000) HDRip | P

в форуме Фантастика, Фэнтези, Размер: 747.01 МБ, Здоровье: 100%

Anonymous

0
9|2

41
74

25 фев 2014, 21:02

Anonymous Перейти к последнему сообщению

В этой теме нет новых непрочитанных сообщений. Скачать торрент Вероника Марс / Veronica Mars (2014) WEB-DL 720p | L1

в форуме 720p | 1080p, Размер: 3.6 ГБ, Здоровье: 0%

Anonymous

0
0|0

39
1

16 мар 2014, 09:02

Anonymous Перейти к последнему сообщению

В этой теме нет новых непрочитанных сообщений. Скачать торрент Проверен Миссия на Марс / Mission to Mars (2000) BDRip [1080p]

в форуме 720p | 1080p, Размер: 12.73 ГБ, Здоровье: 100%

Гость

0
43|15

68
0

14 апр 2015, 19:16

Гость Перейти к последнему сообщению

В этой теме нет новых непрочитанных сообщений. Скачать торрент Вероника Марс / Veronica Mars (2014) WEB-DLRip | BaibaKo

в форуме Детективы, Размер: 1.44 ГБ, Здоровье: 100%

Anonymous

0
11|4

201
167

30 мар 2014, 22:35

Anonymous Перейти к последнему сообщению



Сейчас этот форум просматривают: нет зарегистрированных пользователей и гости: 2


Вы не можете начинать темы
Вы не можете отвечать на сообщения
Вы не можете редактировать свои сообщения
Вы не можете удалять свои сообщения
Вы не можете добавлять вложения

Перейти:  

!ВНИМАНИЕ!
 Ресурс не предоставляет электронные версии произведений, а занимается лишь коллекционированием и каталогизацией ссылок, присылаемых и публикуемых на форуме нашими читателями. Если вы являетесь правообладателем какого-либо представленного материала и не желаете чтобы ссылка на него находилась в нашем каталоге, свяжитесь с нами и мы незамедлительно удалим её. Файлы для обмена на трекере предоставлены пользователями сайта, и администрация не несёт ответственности за их содержание. Просьба не заливать файлы, защищенные авторскими правами, а также файлы нелегального содержания!