На всех торрентах на трекере установлена скидка на скачивание в размере 100 процентов(а).
 Возможность скачивания торрента НЕ зависит от ограничений при низком ратио, низком аплоаде, требуемом ратио или требуемом аплоаде.


Начать новую тему Ответить на тему
Статистика раздачи
Размер: 3.68 ГБ | Добавлен: 06 дек 2014, 19:09 | Скачали: 325
Сидеров: 33  [0 байт/сек]    Личеров: 3  [0 байт/сек]
Пред. тема | След. тема 

Автор
Сообщение

СообщениеДобавлено: 06 дек 2014, 19:09 

Название: Гаттака
Оригинальное название: Gattaca
Год выхода: 1997
Жанр: Фантастика, триллер, мелодрама, драма, антиутопия
Режиссер: Эндрю Никкол
В ролях: Итан Хоук, Джуд Лоу, Ума Турман, Алан Аркин, Лорен Дин, Тони Шэлуб, Гор Видал, Ксандер Беркли, Джейн Брук, Элиас Котеас, Блэр Андервуд, Майя Рудольф, Уильям Ли Скотт, Чад Крист, Эрнест Боргнайн, Дин Норрис, Элизабет Деннехи, Уна Дэймон, Мейсон Гэмбл, Винсент Нилсон

О фильме: Добро пожаловать в Гаттаку - совершенный мир будущего. Здесь каждый генетически запрограммирован, и печальная судьба ожидает тех, кто был рожден в любви, а не в лаборатории. Такова судьба Винсента Фримана, молодого человека, получившего при рождении ярлык «не пригоден». Винсент обладает весомыми недостатками: он подвержен страстям, он поддается эмоциям, и он верит в то, что его мечты сбудутся. Вот почему он покупает личность другого человека, пытаясь обмануть власти и стать уважаемым членом Корпорации Будущего Гаттака. И когда он уже на пути к свободе, убийство грозит раскрытием его реальной личности. Несмотря на свою невиновность, Винсенту есть что скрывать и есть что терять. Но так трудно остаться в живых, когда в тебе живут два человека…



Страна: США
Студия: Columbia Pictures Corporation, Jersey Films
Продолжительность: 01:46:29
Перевод: Дублированный, профессиональный многоголосый, авторский одноголосый, украинский


Кодек: MPEG-4 AVC
Качество: BDRip-AVC
Видео: 1941 Кбит/с, 1024х426, 23.976 кадр/с
Звук:
Аудио #1: Русский (AC3, 6 ch, 448 Кбит/с) / Дублированный (Blu-Ray CEE)
Аудио #2: Русский (AC3, 2 ch, 192 Кбит/с) / Профессиональный многоголосый (Видео Сервис)
Аудио #3: Русский (AC3, 2 ch, 192 Кбит/с) / Профессиональный многоголосый (Первый канал)
Аудио #4: Русский (AC3, 6 ch, 448 Кбит/с) / Авторский одноголосый (Ю. Сербин)
Аудио #5: Русский (AC3, 6 ch, 448 Кбит/с) / Авторский одноголосый (Ю. Живов)
Аудио #6: Русский (AC3, 6 ch, 448 Кбит/с) / Авторский одноголосый (А. Попов)
Аудио #7: Украинский (AC3, 6 ch, 384 Кбит/с) / Профессиональный многоголосый (Україна)
Аудио #8: Английский (AC3, 6 ch, 448 Кбит/с)
Субтитры: Русские, английские

Семпл

Общее
Уникальный идентификатор : 175571692255109644584607165464946490176 (0x8415E0C1563942BBA42EEBAB8DA53B40)
Полное имя : H:1FilmsHРелизыGattaca.1997.x264.BDRip.AVC.MediaClub.mkv
Формат : Matroska
Версия формата : Version 4 / Version 2
Размер файла : 3,68 Гбайт
Продолжительность : 1 ч. 46 м.
Общий поток : 4952 Кбит/сек
Название фильма : -= MediaClub =- rip by Lefevr
Дата кодирования : UTC 2014-12-04 19:14:58
Программа кодирования : mkvmerge v6.1.0 ('Old Devil') built on Mar 4 2013 09:10:42
Библиотека кодирования : libebml v1.3.0 + libmatroska v1.4.0

Видео
Идентификатор : 1
Формат : AVC
Формат/Информация : Advanced Video Codec
Профиль формата : High@L4.1
Параметр CABAC формата : Да
Параметр ReFrames формата : 9 кадров
Идентификатор кодека : V_MPEG4/ISO/AVC
Продолжительность : 1 ч. 46 м.
Битрейт : 1845 Кбит/сек
Номинальный битрейт : 1941 Кбит/сек
Ширина : 1024 пикселя
Высота : 426 пикселей
Соотношение сторон : 2,40:1
Режим частоты кадров : Постоянный
Частота кадров : 23,976 кадра/сек
Цветовое пространство : YUV
Субдискретизация насыщенности : 4:2:0
Битовая глубина : 8 бит
Тип развёртки : Прогрессивная
Бит/(Пиксели*Кадры) : 0.176
Размер потока : 1,37 Гбайт (37%)
Заголовок : Gattaca.1997.x264.BDRip.AVC.MediaClub
Библиотека кодирования : x264 core 130 r2273 b3065e6
Настройки программы : cabac=1 / ref=9 / deblock=1:-2:-2 / analyse=0x3:0x133 / me=umh / subme=11 / psy=1 / psy_rd=1.00:0.15 / mixed_ref=1 / me_range=32 / chroma_me=1 / trellis=2 / 8x8dct=1 / cqm=0 / deadzone=21,11 / fast_pskip=0 / chroma_qp_offset=-3 / threads=6 / lookahead_threads=1 / sliced_threads=0 / nr=0 / decimate=0 / interlaced=0 / bluray_compat=0 / constrained_intra=0 / bframes=8 / b_pyramid=2 / b_adapt=2 / b_bias=0 / direct=3 / weightb=1 / open_gop=0 / weightp=2 / keyint=240 / keyint_min=23 / scenecut=40 / intra_refresh=0 / rc=2pass / mbtree=0 / bitrate=1941 / ratetol=1.0 / qcomp=0.60 / qpmin=0 / qpmax=69 / qpstep=4 / cplxblur=20.0 / qblur=0.5 / ip_ratio=1.40 / pb_ratio=1.30 / aq=1:1.00
Язык : English
Default : Да
Forced : Да

Аудио #1
Идентификатор : 2
Формат : AC-3
Формат/Информация : Audio Coding 3
Расширение режима : CM (complete main)
Параметр Endianness формата : Big
Идентификатор кодека : A_AC3
Продолжительность : 1 ч. 46 м.
Вид битрейта : Постоянный
Битрейт : 448 Кбит/сек
Каналы : 6 каналов
Расположение каналов : Front: L C R, Side: L R, LFE
Частота : 48,0 КГц
Битовая глубина : 16 бит
Метод сжатия : С потерями
Размер потока : 341 Мбайт (9%)
Заголовок : TRACK_01_DUB_RUS_Blu-Ray CEE
Язык : Russian
Default : Да
Forced : Да

Аудио #2
Идентификатор : 3
Формат : AC-3
Формат/Информация : Audio Coding 3
Профиль формата : Dolby Digital
Расширение режима : CM (complete main)
Параметр Endianness формата : Big
Идентификатор кодека : A_AC3
Продолжительность : 1 ч. 46 м.
Вид битрейта : Постоянный
Битрейт : 192 Кбит/сек
Каналы : 2 канала
Расположение каналов : Front: L R
Частота : 48,0 КГц
Битовая глубина : 16 бит
Метод сжатия : С потерями
Размер потока : 146 Мбайт (4%)
Заголовок : TRACK_02_MVO_RUS_VideoServis
Язык : Russian
Default : Нет
Forced : Нет

Аудио #3
Идентификатор : 4
Формат : AC-3
Формат/Информация : Audio Coding 3
Расширение режима : CM (complete main)
Параметр Endianness формата : Big
Идентификатор кодека : A_AC3
Продолжительность : 1 ч. 46 м.
Вид битрейта : Постоянный
Битрейт : 192 Кбит/сек
Каналы : 2 канала
Расположение каналов : Front: L R
Частота : 48,0 КГц
Битовая глубина : 16 бит
Метод сжатия : С потерями
Размер потока : 146 Мбайт (4%)
Заголовок : TRACK_03_MVO_RUS_Первый Канал
Язык : Russian
Default : Нет
Forced : Нет

Аудио #4
Идентификатор : 5
Формат : AC-3
Формат/Информация : Audio Coding 3
Расширение режима : CM (complete main)
Параметр Endianness формата : Big
Идентификатор кодека : A_AC3
Продолжительность : 1 ч. 46 м.
Вид битрейта : Постоянный
Битрейт : 448 Кбит/сек
Каналы : 6 каналов
Расположение каналов : Front: L C R, Side: L R, LFE
Частота : 48,0 КГц
Битовая глубина : 16 бит
Метод сжатия : С потерями
Размер потока : 341 Мбайт (9%)
Заголовок : TRACK_04_AVO_RUS_Serbin
Язык : Russian
Default : Нет
Forced : Нет

Аудио #5
Идентификатор : 6
Формат : AC-3
Формат/Информация : Audio Coding 3
Расширение режима : CM (complete main)
Параметр Endianness формата : Big
Идентификатор кодека : A_AC3
Продолжительность : 1 ч. 46 м.
Вид битрейта : Постоянный
Битрейт : 448 Кбит/сек
Каналы : 6 каналов
Расположение каналов : Front: L C R, Side: L R, LFE
Частота : 48,0 КГц
Битовая глубина : 16 бит
Метод сжатия : С потерями
Размер потока : 341 Мбайт (9%)
Заголовок : TRACK_05_AVO_RUS_Zhivov
Язык : Russian
Default : Нет
Forced : Нет

Аудио #6
Идентификатор : 7
Формат : AC-3
Формат/Информация : Audio Coding 3
Расширение режима : CM (complete main)
Параметр Endianness формата : Big
Идентификатор кодека : A_AC3
Продолжительность : 1 ч. 46 м.
Вид битрейта : Постоянный
Битрейт : 448 Кбит/сек
Каналы : 6 каналов
Расположение каналов : Front: L C R, Side: L R, LFE
Частота : 48,0 КГц
Битовая глубина : 16 бит
Метод сжатия : С потерями
Размер потока : 341 Мбайт (9%)
Заголовок : TRACK_06_AVO_RUS_Popov
Язык : Russian
Default : Нет
Forced : Нет

Аудио #7
Идентификатор : 8
Формат : AC-3
Формат/Информация : Audio Coding 3
Расширение режима : CM (complete main)
Параметр Endianness формата : Big
Идентификатор кодека : A_AC3
Продолжительность : 1 ч. 46 м.
Вид битрейта : Постоянный
Битрейт : 384 Кбит/сек
Каналы : 6 каналов
Расположение каналов : Front: L C R, Side: L R, LFE
Частота : 48,0 КГц
Битовая глубина : 16 бит
Метод сжатия : С потерями
Размер потока : 292 Мбайт (8%)
Заголовок : TRACK_07_MVO_UKR_Україна
Язык : Ukrainian
Default : Нет
Forced : Нет

Аудио #8
Идентификатор : 9
Формат : AC-3
Формат/Информация : Audio Coding 3
Расширение режима : CM (complete main)
Параметр Endianness формата : Big
Идентификатор кодека : A_AC3
Продолжительность : 1 ч. 46 м.
Вид битрейта : Постоянный
Битрейт : 448 Кбит/сек
Каналы : 6 каналов
Расположение каналов : Front: L C R, Side: L R, LFE
Частота : 48,0 КГц
Битовая глубина : 16 бит
Метод сжатия : С потерями
Размер потока : 341 Мбайт (9%)
Заголовок : TRACK_08_ORIGINAL_ENG
Язык : English
Default : Нет
Forced : Нет

Текст #1
Идентификатор : 10
Формат : UTF-8
Идентификатор кодека : S_TEXT/UTF8
Идентификатор кодека/Информация : UTF-8 Plain Text
Заголовок : TEXT_01_SUB_RUS.srt
Язык : Russian
Default : Нет
Forced : Нет

Текст #2
Идентификатор : 11
Формат : UTF-8
Идентификатор кодека : S_TEXT/UTF8
Идентификатор кодека/Информация : UTF-8 Plain Text
Заголовок : TEXT_02_SUB_ENG.srt
Язык : English
Default : Нет
Forced : Нет

Меню
00:00:00.000 : en:Opening Titles
00:07:39.084 : en:"the Not-Too-Distant Future"
00:10:58.491 : en:Ten Fingers, Ten Toes
00:18:49.712 : en:The "Natural" Way
00:23:40.210 : en:The Unspoken Contest
00:31:38.730 : en:Discrimination Down to a Science
00:37:20.947 : en:The Dna Broker
00:43:47.542 : en:Becoming Jerome
00:48:39.208 : en:The Interview
00:56:10.867 : en:The "Hoovers"
01:03:50.410 : en:Cavendish Club
01:08:56.257 : en:In-Valid
01:17:00.950 : en:The Eyelash
01:22:14.388 : en:Irene's Confession
01:28:35.519 : en:A Close Call
01:34:10.728 : en:Random Checkpoint

...last pass...

x264.exe: --pass 2 --bitrate 1941 --preset veryslow --profile high --level 4.1 --ref 9 --deblock -2:-2 --merange 32 --no-fast-pskip --no-dct-decimate --psy-rd 1.00:0.15 --subme 11 --no-mbtree --keyint 240 --sar 1:1 --stats "E:1Films EРелизыGATTACA11111.log" --output "E:1Films EРелизыGATTACA11111.mkv" "F:Temp\0054.avs"

avs [info]: 1024x426p 1:1 @ 2500000/104271 fps (cfr)
x264 [info]: using SAR=1/1
x264 [info]: using cpu capabilities: MMX2 SSE2Fast SSSE3 SSE4.2 AVX
x264 [info]: profile High, level 4.1
x264 [info]: frame I:1082 Avg QP:16.03 size: 59417
x264 [info]: frame P:31179 Avg QP:18.78 size: 20996
x264 [info]: frame B:120883 Avg QP:20.62 size: 6875
x264 [info]: consecutive B-frames: 1.7% 2.2% 5.8% 15.0% 18.8% 39.6% 9.4% 4.6% 3.0%
x264 [info]: mb I I16..4: 15.7% 68.3% 15.9%
x264 [info]: mb P I16..4: 0.5% 8.5% 0.9% P16..4: 32.5% 40.3% 13.7% 1.5% 0.1% skip: 2.0%
x264 [info]: mb B I16..4: 0.0% 0.5% 0.1% B16..8: 42.2% 21.4% 3.5% direct: 4.3% skip:28.0% L0:46.1% L1:45.8% BI: 8.1%
x264 [info]: 8x8 transform intra:81.8% inter:53.4%
x264 [info]: direct mvs spatial:98.6% temporal:1.4%
x264 [info]: coded y,uvDC,uvAC intra: 94.8% 81.0% 60.0% inter: 26.3% 15.6% 6.2%
x264 [info]: i16 v,h,dc,p: 14% 9% 24% 53%
x264 [info]: i8 v,h,dc,ddl,ddr,vr,hd,vl,hu: 8% 7% 13% 10% 13% 12% 13% 11% 13%
x264 [info]: i4 v,h,dc,ddl,ddr,vr,hd,vl,hu: 11% 8% 4% 9% 15% 14% 14% 11% 13%
x264 [info]: i8c dc,h,v,p: 39% 27% 17% 17%
x264 [info]: Weighted P-Frames: Y:11.2% UV:5.4%
x264 [info]: ref P L0: 39.5% 7.9% 19.6% 8.2% 7.5% 5.4% 5.3% 2.9% 3.1% 0.5% 0.1%
x264 [info]: ref B L0: 62.4% 15.0% 8.5% 4.9% 3.7% 3.3% 1.7% 0.6%
x264 [info]: ref B L1: 90.4% 9.6%
x264 [info]: kb/s:1941.32



Релиз от: | Автор рипа:
загрузка...
Правила, инструкции, FAQ!!!
Торрент  Добавлен [06 дек 2014, 19:09] Скачать торрент
Скачать торрент
[ Размер 19.12 КБ / Просмотров 7 ]

Статус
Проверен 
 
Размер  3.68 ГБ
Приватный: Нет (DHT включён)
.torrent скачан  325
Как залить торрент? | Как скачать Torrent? | Как смотреть и слушать онлайн?  


     Отправить личное сообщение
   
Страница 1 из 1
Показать сообщения за:  Поле сортировки  
Начать новую тему Ответить на тему

   Похожие торренты   Автор   Ответы   Просмотры   Последнее сообщение 
В этой теме нет новых непрочитанных сообщений. Скачать торрент Проверен Гаттака / Gattaca (1997) BDRip 1080p

в форуме 720p | 1080p, Размер: 5.77 ГБ, Здоровье: 100%

Гость

0
55|2

41
158

06 дек 2014, 19:05

Гость Перейти к последнему сообщению

В этой теме нет новых непрочитанных сообщений. Скачать торрент Проверен [iPad] Гаттака / Gattaca (Эндрю Никкол / Andrew Niccol) [1997, фантастика, триллер, BDRip, 1024x] (DUB | MVO | AVO | Original)

в форуме Фильмы для iPod, iPhone, iPad, Размер: 2.45 ГБ, Здоровье: 100%

Anonymous

0
23|7

51
0

14 май 2015, 00:03

Anonymous Перейти к последнему сообщению

В этой теме нет новых непрочитанных сообщений. Скачать торрент Проверен Гаттака / Gattaca (1997) HDRip

в форуме Фантастика, Фэнтези, Размер: 1.48 ГБ, Здоровье: 100%

Anonymous

0
198|5

77
1353

06 дек 2014, 19:03

Anonymous Перейти к последнему сообщению

В этой теме нет новых непрочитанных сообщений. Скачать торрент Проверен (Blackened Neocrust) Axidance - 1 album, 1 single, 1 demo - 2008-2012, MP3, 256-320 kbps (4 splits w/ Catastrofe & E123 & Ground Zero & Gattaca)

в форуме Русский Рок, Размер: 435.76 МБ, Здоровье: ???%

Anonymous

0
0|1

4
0

21 авг 2016, 14:08

Anonymous Перейти к последнему сообщению

В этой теме нет новых непрочитанных сообщений. Скачать торрент Куб / Cube (1997) BDRip

в форуме Ужасы, Размер: 1.45 ГБ, Здоровье: 0%

Anonymous

0
0|0

33
0

12 дек 2013, 09:45

Anonymous Перейти к последнему сообщению



Сейчас этот форум просматривают: нет зарегистрированных пользователей и гости: 1


Вы не можете начинать темы
Вы не можете отвечать на сообщения
Вы не можете редактировать свои сообщения
Вы не можете удалять свои сообщения
Вы не можете добавлять вложения

Перейти:  

!ВНИМАНИЕ!
 Ресурс не предоставляет электронные версии произведений, а занимается лишь коллекционированием и каталогизацией ссылок, присылаемых и публикуемых на форуме нашими читателями. Если вы являетесь правообладателем какого-либо представленного материала и не желаете чтобы ссылка на него находилась в нашем каталоге, свяжитесь с нами и мы незамедлительно удалим её. Файлы для обмена на трекере предоставлены пользователями сайта, и администрация не несёт ответственности за их содержание. Просьба не заливать файлы, защищенные авторскими правами, а также файлы нелегального содержания!