На всех торрентах на трекере установлена скидка на скачивание в размере 100 процентов(а).
 Возможность скачивания торрента НЕ зависит от ограничений при низком ратио, низком аплоаде, требуемом ратио или требуемом аплоаде.


Начать новую тему Ответить на тему
Статистика раздачи
Размер: 2.18 ГБ | Добавлен: 06 дек 2014, 18:57 | Скачали: 757
Сидеров: 105  [0 байт/сек]    Личеров: 5  [0 байт/сек]
Пред. тема | След. тема 

Автор
Сообщение

СообщениеДобавлено: 06 дек 2014, 18:57 

Название: Остров
Оригинальное название: The Island
Год выхода: 2005
Жанр: фантастика, боевик, триллер
Режиссер: Майкл Бэй

В ролях: Ивэн МакГрегор, Скарлетт Йоханссон, Джимон Хонсу, Шон Бин, Стив Бушеми, Майкл Кларк Дункан, Этан Филлипс, Брайан Степанек, Ноа Тишби, Сиобэн Флинн, Трой Бленелл, Джэми МакБрайд, Кевин МакКоркл, Гари Никенс, Кэтлин Роуз Перкинс, Ричард Уайтен, Макс Бэйкер, Фил Абрамс, Светлана Ефремова, Кэти Бойер, Рэнди Оглсби

О фильме: Линкольн Шесть-Эхо - житель на вид утопического, но охраняемого поселения середины XXI века. Как и все обитатели этого тщательно контролируемого пространства, Линкольн надеется оказаться среди тех, кого отправят на «Остров» - якобы последнее незагрязненное место на планете. Но очень скоро Линкольн обнаруживает, что абсолютно всё, что касается его существования - ложь.



Страна: США
Продолжительность: 02:16:04
Перевод: Дублированный, Авторский одноголосый закадровый (А. Гаврилов), Дублированный (Украинский | Новый Канал), Оригинал (Английский)


Кодек: x.264
Качество: BDRip-AVC
Видео: 1056x440 (2,40:1), 23.976 fps, 1521 kbps, 0.137 bit/pixel
Аудио #1: 48 kHz, AC3, 2/0 (L,R) ch, 192.00 kbps (Дубляж - Русский)
Аудио #2: 48 kHz, AC3, 2/0 (L,R) ch, 192.00 kbps (А. Гаврилов)
Аудио #3: 48 kHz, AC3, 2/0 (L,R) ch, 192.00 kbps (Дубляж - Украинский)
Аудио #4: 48 kHz, AC3, 2/0 (L,R) ch, 192.00 kbps (Оригинал)
Субтитры: Русские, Русские (forced), Английские (SDH), Английские (отключаемые)

&

Общее
Уникальный идентификатор : 177809487123203098422479017565858562431 (0x85C4DC8F8096D359AF33E4D13944017F)
Полное имя : D:The Island.2005.BDRip-AVC.mkv
Формат : Matroska
Версия формата : Version 4 / Version 2
Размер файла : 2,18 Гбайт
Продолжительность : 2 ч. 16 м.
Общий поток : 2290 Кбит/сек
Название фильма : Остров / The Island (2005) BDRip-AVC rip by Rulya74
Дата кодирования : UTC 2010-02-22 21:41:31
Программа кодирования : mkvmerge v5.9.0 ('On The Loose') built on Dec 9 2012 15:37:01
Библиотека кодирования : libebml v1.3.0 + libmatroska v1.4.0

Видео
Идентификатор : 1
Формат : AVC
Формат/Информация : Advanced Video Codec
Профиль формата : High@L4.1
Параметр CABAC формата : Да
Параметр ReFrames формата : 11 кадров
Идентификатор кодека : V_MPEG4/ISO/AVC
Продолжительность : 2 ч. 16 м.
Битрейт : 1521 Кбит/сек
Ширина : 1056 пикселей
Высота : 440 пикселей
Соотношение сторон : 2,40:1
Частота кадров : 23,976 кадра/сек
Цветовое пространство : YUV
Субдискретизация насыщенности : 4:2:0
Битовая глубина : 8 бит
Тип развёртки : Прогрессивная
Бит/(Пиксели*Кадры) : 0.137
Размер потока : 1,40 Гбайт (64%)
Библиотека кодирования : x264 core 129 r2230 1cffe9f
Настройки программы : cabac=1 / ref=11 / deblock=1:-3:-3 / analyse=0x3:0x133 / me=umh / subme=10 / psy=1 / psy_rd=1.16:0.04 / mixed_ref=1 / me_range=48 / chroma_me=1 / trellis=2 / 8x8dct=1 / cqm=0 / deadzone=21,11 / fast_pskip=0 / chroma_qp_offset=-3 / threads=2 / lookahead_threads=1 / sliced_threads=0 / nr=0 / decimate=1 / interlaced=0 / bluray_compat=0 / constrained_intra=0 / bframes=6 / b_pyramid=2 / b_adapt=2 / b_bias=0 / direct=3 / weightb=1 / open_gop=0 / weightp=2 / keyint=240 / keyint_min=23 / scenecut=40 / intra_refresh=0 / rc_lookahead=40 / rc=2pass / mbtree=1 / bitrate=1521 / ratetol=1.0 / qcomp=0.60 / qpmin=10 / qpmax=51 / qpstep=4 / cplxblur=20.0 / qblur=0.5 / ip_ratio=1.40 / aq=2:1.00
Default : Да
Forced : Нет

Аудио #1
Идентификатор : 2
Формат : AC-3
Формат/Информация : Audio Coding 3
Расширение режима : CM (complete main)
Идентификатор кодека : A_AC3
Продолжительность : 2 ч. 16 м.
Вид битрейта : Постоянный
Битрейт : 192 Кбит/сек
Каналы : 2 канала
Расположение каналов : Front: L R
Частота : 48,0 КГц
Битовая глубина : 16 бит
Метод сжатия : С потерями
Размер потока : 187 Мбайт (8%)
Заголовок : Дублированный (Blu-ray CEE)
Язык : Russian
Default : Да
Forced : Нет

Аудио #2
Идентификатор : 3
Формат : AC-3
Формат/Информация : Audio Coding 3
Расширение режима : CM (complete main)
Идентификатор кодека : A_AC3
Продолжительность : 2 ч. 16 м.
Вид битрейта : Постоянный
Битрейт : 192 Кбит/сек
Каналы : 2 канала
Расположение каналов : Front: L R
Частота : 48,0 КГц
Битовая глубина : 16 бит
Метод сжатия : С потерями
Размер потока : 187 Мбайт (8%)
Заголовок : Авторский одноголосый (А. Гаврилов)
Язык : Russian
Default : Нет
Forced : Нет

Аудио #3
Идентификатор : 4
Формат : AC-3
Формат/Информация : Audio Coding 3
Расширение режима : CM (complete main)
Идентификатор кодека : A_AC3
Продолжительность : 2 ч. 16 м.
Вид битрейта : Постоянный
Битрейт : 192 Кбит/сек
Каналы : 2 канала
Расположение каналов : Front: L R
Частота : 48,0 КГц
Битовая глубина : 16 бит
Метод сжатия : С потерями
Размер потока : 187 Мбайт (8%)
Заголовок : Дублированный (Новый Канал)
Язык : Ukrainian
Default : Нет
Forced : Нет

Аудио #4
Идентификатор : 5
Формат : AC-3
Формат/Информация : Audio Coding 3
Расширение режима : CM (complete main)
Идентификатор кодека : A_AC3
Продолжительность : 2 ч. 16 м.
Вид битрейта : Постоянный
Битрейт : 192 Кбит/сек
Каналы : 2 канала
Расположение каналов : Front: L R
Частота : 48,0 КГц
Битовая глубина : 16 бит
Метод сжатия : С потерями
Размер потока : 187 Мбайт (8%)
Заголовок : Оригинал
Язык : English
Default : Нет
Forced : Нет

Текст #1
Идентификатор : 6
Формат : UTF-8
Идентификатор кодека : S_TEXT/UTF8
Идентификатор кодека/Информация : UTF-8 Plain Text
Язык : Russian
Default : Нет
Forced : Нет

Текст #2
Идентификатор : 7
Формат : UTF-8
Идентификатор кодека : S_TEXT/UTF8
Идентификатор кодека/Информация : UTF-8 Plain Text
Заголовок : Forced
Язык : Russian
Default : Да
Forced : Нет

Текст #3
Идентификатор : 8
Формат : UTF-8
Идентификатор кодека : S_TEXT/UTF8
Идентификатор кодека/Информация : UTF-8 Plain Text
Заголовок : SDH
Язык : English
Default : Нет
Forced : Нет

Текст #4
Идентификатор : 9
Формат : UTF-8
Идентификатор кодека : S_TEXT/UTF8
Идентификатор кодека/Информация : UTF-8 Plain Text
Язык : English
Default : Нет
Forced : Нет

Меню
00:00:00.000 : :1. The Lottery
00:10:36.594 : :2. Tranquility Center
00:16:36.829 : :3. Back To Work
00:20:32.606 : :4. Tech Services
00:27:17.761 : :5. Nightlife
00:32:15.391 : :6. On The Loose
00:41:35.993 : :7. Contamination Alert
00:50:43.290 : :8. Albert Laurent
00:56:33.390 : :9. Aces & Spades
01:05:39.226 : :10. Train Station
01:11:58.939 : :11. Information Directory
01:18:32.207 : :12. Tough Day
01:28:36.436 : :13. Your Insurance Policy
01:34:40.925 : :14. Thought I Was Taller
01:40:26.729 : :15. Worth Every Penny
01:46:44.564 : :16. Recall
01:53:10.325 : :17. Too Bad
01:58:47.995 : :18. A Disturbance
02:03:24.063 : :19. My Name Is Lincoln
02:09:53.744 : :20. End Credits


загрузка...
Правила, инструкции, FAQ!!!
Торрент  Добавлен [06 дек 2014, 18:57] Скачать торрент
Скачать торрент
[ Размер 11.39 КБ / Просмотров 9 ]

Статус
Проверен 
 
Размер  2.18 ГБ
Приватный: Нет (DHT включён)
.torrent скачан  757
Как залить торрент? | Как скачать Torrent? | Как смотреть и слушать онлайн?  


     Отправить личное сообщение
   
Страница 1 из 1
Показать сообщения за:  Поле сортировки  
Начать новую тему Ответить на тему

   Похожие торренты   Автор   Ответы   Просмотры   Последнее сообщение 
В этой теме нет новых непрочитанных сообщений. Скачать торрент Проверен Остров / The Island (2005) BDRip 720p

в форуме 720p | 1080p, Размер: 10.33 ГБ, Здоровье: 100%

Anonymous

0
18|0

96
378

11 авг 2014, 11:38

Anonymous Перейти к последнему сообщению

В этой теме нет новых непрочитанных сообщений. Скачать торрент Проверен Остров / The Island (1980) BDRip | P

в форуме Приключения, Размер: 1.45 ГБ, Здоровье: 100%

Гость

0
20|2

208
124

24 ноя 2014, 22:44

Гость Перейти к последнему сообщению

В этой теме нет новых непрочитанных сообщений. Скачать торрент Проверен Папуа: Секретный остров каннибалов / Papua: The secret island of the cannibals (2013) BDRip 720p

в форуме Документальные, Размер: 2.85 ГБ, Здоровье: 100%

Anonymous

0
40|4

134
99

03 авг 2014, 21:30

Anonymous Перейти к последнему сообщению

В этой теме нет новых непрочитанных сообщений. Скачать торрент Проверен [iPhone] Остров проклятых / Shutter Island (Мартин Скорсезе / Martin Scorsese) [2010 г., триллер, драма, детектив, BDRip]

в форуме Фильмы для iPod, iPhone, iPad, Размер: 1.12 ГБ, Здоровье: 100%

Гость

0
16|5

75
2

18 май 2015, 10:53

Гость Перейти к последнему сообщению

В этой теме нет новых непрочитанных сообщений. Скачать торрент Проверен [iPad] Остров проклятых / Shutter Island (Мартин Скорсезе / Martin Scorsese ) [2009, США, триллер, драма, детектив, BDRip, SD (576p)] DUB + Original + sub Rus + Eng

в форуме Фильмы для iPod, iPhone, iPad, Размер: 2.44 ГБ, Здоровье: 100%

Гость

0
56|19

61
1

11 май 2015, 01:37

Гость Перейти к последнему сообщению



Сейчас этот форум просматривают: нет зарегистрированных пользователей и гости: 1


Вы не можете начинать темы
Вы не можете отвечать на сообщения
Вы не можете редактировать свои сообщения
Вы не можете удалять свои сообщения
Вы не можете добавлять вложения

Перейти:  

!ВНИМАНИЕ!
 Ресурс не предоставляет электронные версии произведений, а занимается лишь коллекционированием и каталогизацией ссылок, присылаемых и публикуемых на форуме нашими читателями. Если вы являетесь правообладателем какого-либо представленного материала и не желаете чтобы ссылка на него находилась в нашем каталоге, свяжитесь с нами и мы незамедлительно удалим её. Файлы для обмена на трекере предоставлены пользователями сайта, и администрация не несёт ответственности за их содержание. Просьба не заливать файлы, защищенные авторскими правами, а также файлы нелегального содержания!