На всех торрентах на трекере установлена скидка на скачивание в размере 100 процентов(а).
 Возможность скачивания торрента НЕ зависит от ограничений при низком ратио, низком аплоаде, требуемом ратио или требуемом аплоаде.


Начать новую тему Ответить на тему
Статистика раздачи
Размер: 2.48 ГБ | Добавлен: 29 ноя 2014, 23:53 | Скачали: 1
Сидеров: 24  [0 байт/сек]    Личеров: 0  [0 байт/сек]
Пред. тема | След. тема 

Автор
Сообщение

СообщениеДобавлено: 29 ноя 2014, 23:53 

Год выпуска: 2014
Производство: США, 20th Century Fox, Gotham Group, Temple Hill Entertainment
Жанр: Фантастика, Боевик, Триллер

Режиссер: Уэс Болл
Продюсер: Марти Бауэн, Вик Годфри, Эллен Голдсмит-Вейн
Актеры: Дилан О’Брайен, Амл Амин, Ки Хонг Ли, Блейк Купер, Томас Сэнгстер, Уилл Поултер, Декстер Дарден, Кая Скоделарио, Крис Шеффилд, Джо Адлер

Описание фильма:
Главный герой — подросток Томас, который просыпается в лифте, но ничего не помнит, кроме своего имени. Он оказывается среди 60 подростков, научившихся выживать в замкнутом пространстве. Раз в 30 дней прибывает новый мальчик. Группа ребят проживает в «Приюте» уже два года. Они кормятся тем, что удается вырастить на земле, и пытаются найти выход из лабиринта, окружающего их место жительства. Но однажды появляется девочка в состоянии комы.

Перевод: Дублированный (Чистый звук)
Субтитры: Отсутствуют



Рейтинг MPAA: PG-13
Возраст: 12+

Дата мировой премьеры: 11 сентября 2014
Дата российской премьеры: 18 сентября 2014, «Двадцатый Век Фокс СНГ»
Дата выхода DVD релиза: 18 декабря 2014, «Двадцатый Век Фокс СНГ»

Продолжительность: 01:53:30
Качество видео: DVDRip

Видеокодек: MPEG-4 AVC/H.264
Битрейт видео: 2360 Kb/s
Размер кадра: 976x408
Аудио »1: 48 kHz, AC3 Dolby Digital, 2/0 (L,R) ch, ~384 kbps (Русский) / Дубляж, Чистый
Аудио »2: 48 kHz, AC3 Dolby Digital, 3/2 (L,C,R,l,r) + LFE ch, ~384 kbps (Английский) / Оригинал
Общее
Уникальный идентификатор : 210430002233460471779974086516753870610 (0x9E4F5820C2C0D095A075866E9548AF12)
Полное имя : D:\Раздачи\Begushij.v.Labirinte.2014.DVDRip.NNM-CLUB.mkv
Формат : Matroska
Версия формата : Version 2
Размер файла : 2,48 Гбайт
Продолжительность : 1 ч. 53 м.
Общий поток : 3130 Кбит/сек
Название фильма : Begushij.v.Labirinte.2014.DVDRip.NNM-CLUB
Дата кодирования : UTC 2014-11-29 10:39:10
Программа кодирования : mkvmerge v4.9.1 ('Ich will') сборка от Jul 11 2011 23:53:15
Библиотека кодирования : libebml v1.2.1 + libmatroska v1.1.1

Видео
Идентификатор : 1
Формат : AVC
Формат/Информация : Advanced Video Codec
Профиль формата :
Параметр CABAC формата : Да
Параметр ReFrames формата : 8 кадров
Идентификатор кодека : V_MPEG4/ISO/AVC
Продолжительность : 1 ч. 53 м.
Битрейт : 2360 Кбит/сек
Ширина : 976 пикселей
Высота : 408 пикселей
Соотношение сторон : 2,40:1
Режим частоты кадров : Постоянный
Частота кадров : 23,976 кадра/сек
Цветовое пространство : YUV
Субдискретизация насыщенности : 4:2:0
Битовая глубина : 8 бит
Тип развёртки : Прогрессивная
Бит/(Пиксели*Кадры) : 0.247
Размер потока : 1,82 Гбайт (73%)
Заголовок : nnm-club.me
Библиотека кодирования : x264 core 130 r2273 b3065e6
Настройки программы : cabac=1 / ref=8 / deblock=1:-1:-2 / analyse=0x3:0x133 / me=umh / subme=11 / psy=1 / psy_rd=1.00:0.10 / mixed_ref=1 / me_range=32 / chroma_me=1 / trellis=2 / 8x8dct=1 / cqm=0 / deadzone=21,11 / fast_pskip=0 / chroma_qp_offset=-3 / threads=6 / lookahead_threads=1 / sliced_threads=0 / nr=0 / decimate=0 / interlaced=0 / bluray_compat=0 / constrained_intra=0 / bframes=3 / b_pyramid=2 / b_adapt=2 / b_bias=0 / direct=3 / weightb=1 / open_gop=0 / weightp=2 / keyint=240 / keyint_min=23 / scenecut=40 / intra_refresh=0 / rc_lookahead=50 / rc=2pass / mbtree=1 / bitrate=2360 / ratetol=1.0 / qcomp=0.60 / qpmin=0 / qpmax=69 / qpstep=4 / cplxblur=20.0 / qblur=0.5 / ip_ratio=1.40 / aq=1:1.00
Default : Да
Forced : Нет

Аудио #1
Идентификатор : 2
Формат : AC-3
Формат/Информация : Audio Coding 3
Расширение режима : CM (complete main)
Параметр Endianness формата : Big
Идентификатор кодека : A_AC3
Продолжительность : 1 ч. 53 м.
Вид битрейта : Постоянный
Битрейт : 384 Кбит/сек
Каналы : 2 канала
Расположение каналов : Front: L R
Частота : 48,0 КГц
Битовая глубина : 16 бит
Метод сжатия : С потерями
Задержка видео : 24 мс.
Размер потока : 312 Мбайт (12%)
Заголовок : Line
Default : Да
Forced : Нет

Аудио #2
Идентификатор : 3
Формат : AC-3
Формат/Информация : Audio Coding 3
Расширение режима : CM (complete main)
Параметр Endianness формата : Big
Идентификатор кодека : A_AC3
Продолжительность : 1 ч. 53 м.
Вид битрейта : Постоянный
Битрейт : 384 Кбит/сек
Каналы : 6 каналов
Расположение каналов : Front: L C R, Side: L R, LFE
Частота : 48,0 КГц
Битовая глубина : 16 бит
Метод сжатия : С потерями
Размер потока : 312 Мбайт (12%)
Заголовок : Original
Язык : Russian
Default : Нет
Forced : Нет
Скриншоты:
загрузка...
Правила, инструкции, FAQ!!!
Торрент  Добавлен [29 ноя 2014, 23:53] Скачать торрент
Скачать торрент
[ Размер 13.16 КБ / Просмотров 10 ]

Статус
Проверен 
 
Размер  2.48 ГБ
Приватный: Нет (DHT включён)
.torrent скачан  1
Как залить торрент? | Как скачать Torrent? | Как смотреть и слушать онлайн?  


     Отправить личное сообщение
   
Страница 1 из 1
Показать сообщения за:  Поле сортировки  
Начать новую тему Ответить на тему

   Похожие торренты   Автор   Ответы   Просмотры   Последнее сообщение 
В этой теме нет новых непрочитанных сообщений. Скачать торрент Проверен OST - Бегущий в лабиринте / The Maze Runner (2014) MP3

в форуме Зарубежная музыка (сборники), Размер: 148.48 МБ, Здоровье: 100%

Anonymous

0
33|8

54
21

11 ноя 2015, 22:55

Anonymous Перейти к последнему сообщению

В этой теме нет новых непрочитанных сообщений. Скачать торрент Проверен Бегущий в лабиринте / The Maze Runner (2014) BDRip 1080p | Чистый звук

в форуме 720p | 1080p, Размер: 7.56 ГБ, Здоровье: 100%

Гость

0
1|0

77
1

01 дек 2014, 12:41

Гость Перейти к последнему сообщению

В этой теме нет новых непрочитанных сообщений. Скачать торрент Проверен Бегущий в лабиринте / The Maze Runner (2014) BDRip 720p | Чистый звук

в форуме 720p | 1080p, Размер: 5.07 ГБ, Здоровье: 100%

Гость

0
67|0

33
1

01 дек 2014, 12:44

Гость Перейти к последнему сообщению

В этой теме нет новых непрочитанных сообщений. Скачать торрент Проверен OST - Бегущий в лабиринте: Испытание огнём / Maze Runner: The Scorch Trials (2015) MP3

в форуме Зарубежная музыка (сборники), Размер: 176.06 МБ, Здоровье: 100%

Anonymous

0
40|11

287
34

11 ноя 2015, 22:55

Anonymous Перейти к последнему сообщению

В этой теме нет новых непрочитанных сообщений. Скачать торрент Проверен Бегущий по льду / The Ice Runner (1992) DVDRip | A

в форуме Приключения, Размер: 1.4 ГБ, Здоровье: 100%

Anonymous

0
13|2

197
201

11 дек 2014, 19:48

Anonymous Перейти к последнему сообщению



Сейчас этот форум просматривают: нет зарегистрированных пользователей и гости: 1


Вы не можете начинать темы
Вы не можете отвечать на сообщения
Вы не можете редактировать свои сообщения
Вы не можете удалять свои сообщения
Вы не можете добавлять вложения

Перейти:  

!ВНИМАНИЕ!
 Ресурс не предоставляет электронные версии произведений, а занимается лишь коллекционированием и каталогизацией ссылок, присылаемых и публикуемых на форуме нашими читателями. Если вы являетесь правообладателем какого-либо представленного материала и не желаете чтобы ссылка на него находилась в нашем каталоге, свяжитесь с нами и мы незамедлительно удалим её. Файлы для обмена на трекере предоставлены пользователями сайта, и администрация не несёт ответственности за их содержание. Просьба не заливать файлы, защищенные авторскими правами, а также файлы нелегального содержания!