На всех торрентах на трекере установлена скидка на скачивание в размере 100 процентов(а).
 Возможность скачивания торрента НЕ зависит от ограничений при низком ратио, низком аплоаде, требуемом ратио или требуемом аплоаде.


Начать новую тему Ответить на тему
Статистика раздачи
Размер: 1.45 ГБ | Добавлен: 25 окт 2014, 09:23 | Скачали: 1
Сидеров: 0  [0 байт/сек]    Личеров: 0  [0 байт/сек]
Пред. тема | След. тема 

Автор
Сообщение

СообщениеДобавлено: 25 окт 2014, 09:23 

Год выпуска: 2001
Производство: США, Dimension Films
Жанр: Фантастика, боевик, триллер, драма, экранизация

Режиссер: Гэри Фледер
Актеры: Гэри Синиз, Мэдлин Стоу, Винсент Д`Онофрио, Тони Шэлоуб, Тим Гини, Элизабет Пенья, Мехи Файфер, Линдси Краус, Гари Дурдан

Описание фильма:
По одноимённому рассказу писателя Филипа Дика. 2079 год. Уже много лет земляне ведут войну с инопланетянами. Талантливый ученый Спенсер Олхэм создает уникальное оружие для борьбы с ними. Но в один прекрасный день его самого объявляют пришельцем и начинают широкомасштабную охоту. В ситуации, когда его ищут все спецслужбы страны, Спенсер должен доказать свою невиновность и понять, кто он есть на самом деле…

Перевод: Дублированный
Субтитры: Отсутствуют



Продолжительность: 01:35:35
Качество видео: BDRip

Видеокодек: XviD
Битрейт видео: ~1782 Кбит/с
Размер кадра: 704x400
Аудиокодек: AC3 6 ch
Битрейт аудио: 384 Кбит/с

Общее
Полное имя : C:\NNM\Пришелец\Prishelec 2001 BDRip.avi
Формат : AVI
Формат/Информация : Audio Video Interleave
Размер файла : 1,45 Гбайт
Продолжительность : 1 ч. 35 м.
Общий поток : 2175 Кбит/сек
Программа кодирования : VirtualDubMod 1.5.10.2 (build 2540/release)

Видео
Идентификатор : 0
Формат : MPEG-4 Visual
Профиль формата : Advanced Simple@L5
Параметр BVOP формата : 1
Параметр QPel формата : Нет
Параметр GMC формата : Без точки перехода
Параметр матрицы формата : Выборочная
Идентификатор кодека : XVID
Идентификатор кодека/Подсказка : XviD
Продолжительность : 1 ч. 35 м.
Битрейт : 1782 Кбит/сек
Ширина : 704 пикселя
Высота : 400 пикселей
Соотношение сторон : 16:9
Частота кадров : 23,976 кадра/сек
Цветовое пространство : YUV
Субдискретизация насыщенности : 4:2:0
Битовая глубина : 8 бит
Тип развёртки : Прогрессивная
Метод сжатия : С потерями
Бит/(Пиксели*Кадры) : 0.264
Размер потока : 1,19 Гбайт (82%)
Библиотека кодирования : XviD 72

Аудио
Идентификатор : 1
Формат : AC-3
Формат/Информация : Audio Coding 3
Расширение режима : CM (complete main)
Идентификатор кодека : 2000
Продолжительность : 1 ч. 35 м.
Вид битрейта : Постоянный
Битрейт : 384 Кбит/сек
Каналы : 6 каналов
Расположение каналов : Front: L C R, Side: L R, LFE
Частота : 48,0 КГц
Битовая глубина : 16 бит
Метод сжатия : С потерями
Размер потока : 262 Мбайт (18%)
Выравнивание : Разделение по промежуткам
Продолжительность промежутка : 42 мс. (1,00 видеокадр)
Время предзагрузки промежутка : 500 мс.
загрузка...
Правила, инструкции, FAQ!!!
Торрент  Добавлен [25 окт 2014, 09:23] Скачать торрент
Скачать торрент
[ Размер 15.19 КБ / Просмотров 5 ]

Статус
Проверен 
 
Размер  1.45 ГБ
Приватный: Нет (DHT включён)
.torrent скачан  1
Как залить торрент? | Как скачать Torrent? | Как смотреть и слушать онлайн?  


     Отправить личное сообщение
   
Страница 1 из 1
Показать сообщения за:  Поле сортировки  
Начать новую тему Ответить на тему

   Похожие торренты   Автор   Ответы   Просмотры   Последнее сообщение 
В этой теме нет новых непрочитанных сообщений. Скачать торрент Проверен Пришелец / Impostor (2001) BDRip 720p | Theatrical Cut | D, P2, A

в форуме 720p | 1080p, Размер: 4.38 ГБ, Здоровье: 100%

Гость

0
107|84

36
125

21 фев 2015, 19:17

Гость Перейти к последнему сообщению

В этой теме нет новых непрочитанных сообщений. Скачать торрент Проверен Ветемаа Энн - Пришелец [Ерисанова Ирина, 2012 г., 44 kHz, Mono, MP3]

в форуме Зарубежная фантастика, фэнтези, мистика, ужасы, Размер: 277.29 МБ, Здоровье: 0%

Anonymous

0
0|0

1
0

11 сен 2016, 11:03

Anonymous Перейти к последнему сообщению

В этой теме нет новых непрочитанных сообщений. Скачать торрент Евгений Лукин | Требуется пришелец [Сборник рассказов] (2012) [FB2]

в форуме Фантастика, фэнтези, Размер: 885.15 КБ, Здоровье: 100%

Anonymous

0
18|1

69
5

11 апр 2014, 23:52

Anonymous Перейти к последнему сообщению

В этой теме нет новых непрочитанных сообщений. Скачать торрент Проверен Библиотека Пирамида. Исторический детектив - Юлиан Стрыйковский - Пришелец из Нарбонны [1993, DjVu, RUS]

в форуме Детективы и Боевики, Размер: 10.3 МБ, Здоровье: 0%

Anonymous

0
0|0

8
0

08 сен 2016, 20:57

Anonymous Перейти к последнему сообщению

В этой теме нет новых непрочитанных сообщений. Скачать торрент Крутой Джо / Joe Somebody (2001) BDRip

в форуме Комедии, Размер: 2.07 ГБ, Здоровье: 0%

Anonymous

0
0|0

30
0

16 фев 2014, 09:43

Anonymous Перейти к последнему сообщению



Сейчас этот форум просматривают: нет зарегистрированных пользователей и гости: 2


Вы не можете начинать темы
Вы не можете отвечать на сообщения
Вы не можете редактировать свои сообщения
Вы не можете удалять свои сообщения
Вы не можете добавлять вложения

Перейти:  

!ВНИМАНИЕ!
 Ресурс не предоставляет электронные версии произведений, а занимается лишь коллекционированием и каталогизацией ссылок, присылаемых и публикуемых на форуме нашими читателями. Если вы являетесь правообладателем какого-либо представленного материала и не желаете чтобы ссылка на него находилась в нашем каталоге, свяжитесь с нами и мы незамедлительно удалим её. Файлы для обмена на трекере предоставлены пользователями сайта, и администрация не несёт ответственности за их содержание. Просьба не заливать файлы, защищенные авторскими правами, а также файлы нелегального содержания!