На всех торрентах на трекере установлена скидка на скачивание в размере 100 процентов(а).
 Возможность скачивания торрента НЕ зависит от ограничений при низком ратио, низком аплоаде, требуемом ратио или требуемом аплоаде.


Начать новую тему Ответить на тему
Статистика раздачи
Размер: 2.18 ГБ | Добавлен: 19 сен 2014, 08:00 | Скачали: 0
Сидеров: 0  [0 байт/сек]    Личеров: 0  [0 байт/сек]
Пред. тема | След. тема 

Автор
Сообщение

СообщениеДобавлено: 19 сен 2014, 08:00 

Год выпуска: 1995
Жанр: Фантастика, Боевик, Триллер

Описание фильма:
В третьем тысячелетии мир переменился. Климат, народы — все перевернулось… Земля превратилась в ядовитую, выжженную пустыню, которую стали называть «Проклятая земля». Миллионы людей сосредоточились в нескольких огромных городах, на улицах которых царили хаос и преступники. Система правосудия не смогла справиться с анархией, и был создан новый порядок — элитные подразделения, которые сами задерживали, судили, выносили приговор и приводили его в исполнение. Их называли Судьями.

Режиссер: Дэнни Кэннон / Danny Cannon
Актеры: Сильвестр Сталлоне, Арманд Ассанте, Роб Шнайдер, Юрген Прохнов, Макс фон Сюдов, Дайан Лэйн, Джоэнна Майлз, Джоан Чэнь, Бальтазар Гетти, Морис Роевз

Продолжительность: 01:36:03
Качество видео: BDRip
Перевод: Многоголосый закадровый
Релиз группа: HQ Underverse



Дата мировой премьеры: 30 июня 1995
Дата выхода DVD релиза: 12 сентября 2012

Видеокодек: Xvid
Битрейт видео: ~2133 kbps
Размер кадра: 720x304
Аудио #1: русский, многоголосый закадровый [профессиональный, R5], AC3 5.1, 448 kbps
Аудио #2: украинский, многоголосый закадровый [профессиональный, ICTV], AC3 2.0, 192 kbps
Аудио #3: английский, оригинал, AC3 5.1, 448 kbps
Сэмпл: Ссылка
General
Complete name : D:\Video\Movies\Releases\Judge.Dredd.1995.BDRip.XviD.Rus.MVO.Ukr.MVO.Eng.O.HQ.Underverse.avi
Format : AVI
Format/Info : Audio Video Interleave
Format profile : OpenDML
File size : 2.18 GiB
Duration : 1h 36mn
Overall bit rate : 3 246 Kbps
Writing application : VirtualDubMod 1.5.10.3 | www.virtualdub-fr.org || (build 2550/release)
Writing library : VirtualDubMod build 2550/release

Video
ID : 0
Format : MPEG-4 Visual
Format profile : Streaming Video@L1
Format settings, BVOP : Yes
Format settings, QPel : No
Format settings, GMC : No warppoints
Format settings, Matrix : Custom
Codec ID : XVID
Codec ID/Hint : XviD
Duration : 1h 36mn
Bit rate : 2 134 Kbps
Width : 720 pixels
Height : 304 pixels
Display aspect ratio : 2.35
Frame rate : 23.976 fps
Resolution : 24 bits
Colorimetry : 4:2:0
Scan type : Progressive
Bits/(Pixel*Frame) : 0.407
Stream size : 1.43 GiB (66%)
Writing library : XviD 64

Audio #1
ID : 1
Format : AC-3
Format/Info : Audio Coding 3
Codec ID : 2000
Duration : 1h 36mn
Bit rate mode : Constant
Bit rate : 448 Kbps
Channel(s) : 6 channels
Channel positions : Front: L C R, Surround: L R, LFE
Sampling rate : 48.0 KHz
Stream size : 308 MiB (14%)
Alignment : Split accross interleaves
Interleave, duration : 42 ms (1.00 video frame)
Interleave, preload duration : 500 ms
Title : Russian MVO (R5)

Audio #2
ID : 2
Format : AC-3
Format/Info : Audio Coding 3
Codec ID : 2000
Duration : 1h 36mn
Bit rate mode : Constant
Bit rate : 192 Kbps
Channel(s) : 2 channels
Channel positions : L R
Sampling rate : 48.0 KHz
Stream size : 132 MiB (6%)
Alignment : Split accross interleaves
Interleave, duration : 42 ms (1.00 video frame)
Interleave, preload duration : 500 ms
Title : Ukrainian MVO (ICTV)

Audio #3
ID : 3
Format : AC-3
Format/Info : Audio Coding 3
Codec ID : 2000
Duration : 1h 36mn
Bit rate mode : Constant
Bit rate : 448 Kbps
Channel(s) : 6 channels
Channel positions : Front: L C R, Surround: L R, LFE
Sampling rate : 48.0 KHz
Stream size : 308 MiB (14%)
Alignment : Split accross interleaves
Interleave, duration : 42 ms (1.00 video frame)
Interleave, preload duration : 500 ms
Title : English
Скриншоты:
загрузка...
Правила, инструкции, FAQ!!!
Торрент  Добавлен [19 сен 2014, 08:00] Скачать торрент
Скачать торрент
[ Размер 11.71 КБ / Просмотров 8 ]

Статус
Проверен 
 
Размер  2.18 ГБ
Приватный: Нет (DHT включён)
.torrent скачан  0
Как залить торрент? | Как скачать Torrent? | Как смотреть и слушать онлайн?  


     Отправить личное сообщение
   
Страница 1 из 1
Показать сообщения за:  Поле сортировки  
Начать новую тему Ответить на тему

   Похожие торренты   Автор   Ответы   Просмотры   Последнее сообщение 
В этой теме нет новых непрочитанных сообщений. Скачать торрент Проверен Судья / The Judge (2014) BDRip [1080p]

в форуме 720p | 1080p, Размер: 11.31 ГБ, Здоровье: 100%

Гость

0
187|99

36
0

14 янв 2015, 23:47

Гость Перейти к последнему сообщению

В этой теме нет новых непрочитанных сообщений. Скачать торрент Проверен Судья / The Judge (2014) WEB-DLRip | iTunes

в форуме Драмы, Мелодрамы, Размер: 1.45 ГБ, Здоровье: 100%

Гость

0
7|0

54
0

30 дек 2014, 22:01

Гость Перейти к последнему сообщению

В этой теме нет новых непрочитанных сообщений. Скачать торрент Проверен Судья / The Judge (2014) WEB-DL 720p | iTunes

в форуме 720p | 1080p, Размер: 4.44 ГБ, Здоровье: 100%

Гость

0
5736|2051

49
10832

30 дек 2014, 21:57

Гость Перейти к последнему сообщению

В этой теме нет новых непрочитанных сообщений. Скачать торрент Проверен W.Q.Judge / У.К.Джадж - The Path / Путь [1886-1896, PDF, ENG]

в форуме Эзотерика, гадания, магия, фен-шуй, Размер: 89.73 МБ, Здоровье: 0%

Anonymous

0
0|0

1
0

28 авг 2016, 21:50

Anonymous Перейти к последнему сообщению

В этой теме нет новых непрочитанных сообщений. Скачать торрент Проверен (Trance) Judge Jules - Bring the Noise - 2009, MP3 (tracks), 320 kbps

в форуме Trance, Размер: 356.61 МБ, Здоровье: 100%

Гость

0
1|0

23
0

04 фев 2015, 21:26

Гость Перейти к последнему сообщению



Сейчас этот форум просматривают: нет зарегистрированных пользователей и гости: 1


Вы не можете начинать темы
Вы не можете отвечать на сообщения
Вы не можете редактировать свои сообщения
Вы не можете удалять свои сообщения
Вы не можете добавлять вложения

Перейти:  

!ВНИМАНИЕ!
 Ресурс не предоставляет электронные версии произведений, а занимается лишь коллекционированием и каталогизацией ссылок, присылаемых и публикуемых на форуме нашими читателями. Если вы являетесь правообладателем какого-либо представленного материала и не желаете чтобы ссылка на него находилась в нашем каталоге, свяжитесь с нами и мы незамедлительно удалим её. Файлы для обмена на трекере предоставлены пользователями сайта, и администрация не несёт ответственности за их содержание. Просьба не заливать файлы, защищенные авторскими правами, а также файлы нелегального содержания!