На всех торрентах на трекере установлена скидка на скачивание в размере 100 процентов(а).
 Возможность скачивания торрента НЕ зависит от ограничений при низком ратио, низком аплоаде, требуемом ратио или требуемом аплоаде.


Начать новую тему Ответить на тему
Статистика раздачи
Размер: 1.46 ГБ | Добавлен: 10 сен 2014, 22:07 | Скачали: 0
Сидеров: 0  [0 байт/сек]    Личеров: 0  [0 байт/сек]
Пред. тема | След. тема 

Автор
Сообщение

СообщениеДобавлено: 10 сен 2014, 22:07 

Год выпуска: 2013
Производство: Португалия, MGN Filmes
Жанр: Фантастика, боевик, приключения

Режиссер: Тино Наварро, David Rebordao
Продюсер: Тино Наварро
Актеры: Рутгер Хауэр, Аликс Вилтон Риган, Дафна Фернандес, Клаудиа Сванн, Сорая Чавес, Виктория Герра, Кристофер Го, Киэн Бэрри, Педру Гранжер, Крис Ташима

Описание фильма:
В не слишком далеком будущем, престарелый мультимиллионер Стив Батьер, который, к тому же, неизлечимо болен, принял предложение компании RPG, которое состояло в том, что группа клиентов получает возможность "обрести молодое тело". В течении 10 часов 10 миллионеров со всего мира окажутся снова молодыми и здоровыми. Но у этой "игры" есть вполне реальные правила - каждый час кто-то из них может умереть.В возрасте 23 лет, Стив готов пойти на все, чтобы сохранить эту вечную молодость...

Перевод: Любительский (одноголосый) [R.A.I.M]
Субтитры: Отсутствуют



Дата мировой премьеры: 29 августа 2013

Продолжительность: 01:42:23
Качество видео: HDRip

Видеокодек: XviD
Битрейт видео: ~1584 Кбит/с
Размер кадра: 720x304
Аудиокодек: AC3 6 ch
Битрейт аудио: 448 Кбит/с
Общее
Полное имя : C:\NNM\Опасная игра\Opasnaya igra 2014 HDRip.avi
Формат : AVI
Формат/Информация : Audio Video Interleave
Размер файла : 1,46 Гбайт
Продолжительность : 1 ч. 42 м.
Общий поток : 2042 Кбит/сек
Программа кодирования : VirtualDubMod 1.5.10.2 (build 2540/release)
Библиотека кодирования : VirtualDubMod build 2540/release

Видео
Идентификатор : 0
Формат : MPEG-4 Visual
Профиль формата : Advanced Simple@L5
Параметр BVOP формата : 2
Параметр QPel формата : Нет
Параметр GMC формата : Без точки перехода
Параметр матрицы формата : Default (MPEG)
Идентификатор кодека : XVID
Идентификатор кодека/Подсказка : XviD
Продолжительность : 1 ч. 42 м.
Битрейт : 1584 Кбит/сек
Ширина : 720 пикселей
Высота : 304 пикселя
Соотношение сторон : 2,35:1
Частота кадров : 24,000 кадра/сек
Цветовое пространство : YUV
Субдискретизация насыщенности : 4:2:0
Битовая глубина : 8 бит
Тип развёртки : Прогрессивная
Метод сжатия : С потерями
Бит/(Пиксели*Кадры) : 0.302
Размер потока : 1,13 Гбайт (78%)
Библиотека кодирования : XviD 1.2.1 (UTC 2008-12-04)

Аудио
Идентификатор : 1
Формат : AC-3
Формат/Информация : Audio Coding 3
Расширение режима : CM (complete main)
Идентификатор кодека : 2000
Продолжительность : 1 ч. 42 м.
Вид битрейта : Постоянный
Битрейт : 448 Кбит/сек
Каналы : 6 каналов
Расположение каналов : Front: L C R, Side: L R, LFE
Частота : 48,0 КГц
Битовая глубина : 16 бит
Метод сжатия : С потерями
Размер потока : 328 Мбайт (22%)
Выравнивание : Разделение по промежуткам
Продолжительность промежутка : 42 мс. (1,00 видеокадр)
Время предзагрузки промежутка : 500 мс.
Скриншоты:


загрузка...
Правила, инструкции, FAQ!!!
Торрент  Добавлен [10 сен 2014, 22:07] Скачать торрент
Скачать торрент
[ Размер 15.29 КБ / Просмотров 12 ]

Статус
Проверен 
 
Размер  1.46 ГБ
Приватный: Нет (DHT включён)
.torrent скачан  0
Как залить торрент? | Как скачать Torrent? | Как смотреть и слушать онлайн?  


     Отправить личное сообщение
   
Страница 1 из 1
Показать сообщения за:  Поле сортировки  
Начать новую тему Ответить на тему

   Похожие торренты   Автор   Ответы   Просмотры   Последнее сообщение 
В этой теме нет новых непрочитанных сообщений. Скачать торрент Игра Эндера / Ender's Game (2013) HDRip | Чистый звук

в форуме Фантастика, Фэнтези, Размер: 1.46 ГБ, Здоровье: 100%

Anonymous

0
1012|30

58
120

30 янв 2014, 14:36

Anonymous Перейти к последнему сообщению

В этой теме нет новых непрочитанных сообщений. Скачать торрент Проверен Игра / The Game (1997) HDRip | D

в форуме Триллеры, Размер: 1.45 ГБ, Здоровье: 100%

Гость

0
103|74

108
21

01 дек 2015, 21:41

Гость Перейти к последнему сообщению

В этой теме нет новых непрочитанных сообщений. Скачать торрент Проверен Честная игра / Fair Game (1995) HDRip | D

в форуме Боевики, Размер: 1.45 ГБ, Здоровье: 100%

Гость

0
36|1

101
3

28 мар 2016, 22:41

Гость Перейти к последнему сообщению

В этой теме нет новых непрочитанных сообщений. Скачать торрент Проверен Игра Джокера / Joker Game (2015) HDRip | L

в форуме Триллеры, Размер: 2.05 ГБ, Здоровье: 100%

Гость

0
763|228

114
916

28 сен 2015, 21:56

Гость Перейти к последнему сообщению

В этой теме нет новых непрочитанных сообщений. Скачать торрент Проверен Игра в имитацию / The Imitation Game (2014) HDRip | D

в форуме Триллеры, Размер: 1.45 ГБ, Здоровье: 100%

Anonymous

0
2443|221

83
6731

28 мар 2015, 00:16

Anonymous Перейти к последнему сообщению



Сейчас этот форум просматривают: нет зарегистрированных пользователей и гости: 2


Вы не можете начинать темы
Вы не можете отвечать на сообщения
Вы не можете редактировать свои сообщения
Вы не можете удалять свои сообщения
Вы не можете добавлять вложения

Перейти:  

!ВНИМАНИЕ!
 Ресурс не предоставляет электронные версии произведений, а занимается лишь коллекционированием и каталогизацией ссылок, присылаемых и публикуемых на форуме нашими читателями. Если вы являетесь правообладателем какого-либо представленного материала и не желаете чтобы ссылка на него находилась в нашем каталоге, свяжитесь с нами и мы незамедлительно удалим её. Файлы для обмена на трекере предоставлены пользователями сайта, и администрация не несёт ответственности за их содержание. Просьба не заливать файлы, защищенные авторскими правами, а также файлы нелегального содержания!