На всех торрентах на трекере установлена скидка на скачивание в размере 100 процентов(а).
 Возможность скачивания торрента НЕ зависит от ограничений при низком ратио, низком аплоаде, требуемом ратио или требуемом аплоаде.


Начать новую тему Ответить на тему
Статистика раздачи
Размер: 2.96 ГБ | Добавлен: 07 сен 2014, 20:06 | Скачали: 0
Сидеров: 0  [0 байт/сек]    Личеров: 0  [0 байт/сек]
Пред. тема | След. тема 

Автор
Сообщение

СообщениеДобавлено: 07 сен 2014, 20:06 

Название: Человек с Земли
Оригинальное название: The Man from Earth
Год выхода: 2007
Жанр: Фантастика, драма
Режиссер: Ричард Шенкман

В ролях: Дэвид Ли Смит, Тони Тодд, Джон Биллингсли, Эллен Кроуфорд, Анника Петерсон, Уильям Кэтт, Алексис Торпе, Ричард Рили, Стивен Литтлс, Чейз Страг

О фильме: Импровизированная прощальная вечеринка профессора стала загадкой после того, как учёный рассказывает своим коллегам, что он бессмертный, который ходит по земле уже 14000 лет



Страна: США
Студия: Falling Sky Entertainment
Продолжительность: 01:27:09
Перевод: Профессиональный многоголосый, авторский одноголосый (Дольский), (Кузнецов), украинский


Кодек: MPEG-4 AVC
Качество: BDRip-AVC
Видео: 3350 Кбит/с, 1024x576, 23.976 кадр/с
Звук:
Аудио #1: Русский (AC3, 2 ch, 224 Кбит/с) / Профессиональный многоголосый (Кубик в Кубе)
Аудио #2: Русский (AC3, 2 ch, 192 Кбит/с) / Авторский одноголосый (Дольский)
Аудио #3: Русский (AC3, 2 ch, 192 Кбит/с) / Авторский одноголосый (Кузнецов)
Аудио #4: Украинский (AC3, 6 ch, 448 Кбит/с) / Профессиональный многоголосый (Омикрон)
Аудио #5: Английский (AC3, 6 ch, 448 Кбит/с)
Субтитры: Русские, английские

Семпл

Общее
Уникальный идентификатор : 183399140200218611176232459212995066563 (0x89F963BC14E36EF39F6D9E42F5F67AC3)
Полное имя : D:Мои РипыChelovek s Zemli.2007.x264.BDRip.AVC.MediaClub.mkv
Формат : Matroska
Версия формата : Version 4 / Version 2
Размер файла : 2,96 Гбайт
Продолжительность : 1 ч. 27 м.
Общий поток : 4856 Кбит/сек
Название фильма : = MediaClub = rip by krakatuq
Дата кодирования : UTC 2014-09-07 10:57:11
Программа кодирования : mkvmerge v6.6.0 ('The Edge Of The In Between') built on Dec 1 2013 17:55:00
Библиотека кодирования : libebml v1.3.0 + libmatroska v1.4.1

Видео
Идентификатор : 1
Формат : AVC
Формат/Информация : Advanced Video Codec
Профиль формата : High@L4.1
Параметр CABAC формата : Да
Параметр ReFrames формата : 9 кадров
Идентификатор кодека : V_MPEG4/ISO/AVC
Продолжительность : 1 ч. 27 м.
Битрейт : 3350 Кбит/сек
Ширина : 1024 пикселя
Высота : 576 пикселей
Соотношение сторон : 16:9
Режим частоты кадров : Постоянный
Частота кадров : 23,976 кадра/сек
Цветовое пространство : YUV
Субдискретизация насыщенности : 4:2:0
Битовая глубина : 8 бит
Тип развёртки : Прогрессивная
Бит/(Пиксели*Кадры) : 0.237
Размер потока : 1,98 Гбайт (67%)
Заголовок : Chelovek s Zemli.2007.x264.BDRip.AVC.MediaClub
Библиотека кодирования : x264 core 142 r2409+42 04be48a tMod [8-bit@4:2:0 X86]
Настройки программы : cabac=1 / ref=9 / deblock=1:-2:-2 / analyse=0x3:0x133 / me=umh / subme=11 / psy=1 / fade_compensate=0.00 / psy_rd=1.00:0.20 / mixed_ref=1 / me_range=32 / chroma_me=1 / trellis=2 / 8x8dct=1 / cqm=0 / deadzone=21,11 / fast_pskip=0 / chroma_qp_offset=-3 / threads=3 / lookahead_threads=1 / sliced_threads=0 / nr=0 / decimate=0 / interlaced=0 / bluray_compat=0 / constrained_intra=0 / fgo=0 / bframes=8 / b_pyramid=2 / b_adapt=2 / b_bias=0 / direct=3 / weightb=1 / open_gop=0 / weightp=2 / keyint=240 / keyint_min=23 / scenecut=40 / intra_refresh=0 / rc=2pass / mbtree=0 / bitrate=3350 / ratetol=1.0 / qcomp=0.60 / qpmin=0:0:0 / qpmax=69:69:69 / qpstep=4 / cplxblur=20.0 / qblur=0.5 / ip_ratio=1.40 / pb_ratio=1.30 / aq=1:1.00 / aq-sensitivity=10.00 / aq-factor=1.00:1.00:1.00 / aq2=0 / aq3=0
Язык : English
Default : Да
Forced : Нет

Аудио #1
Идентификатор : 2
Формат : AC-3
Формат/Информация : Audio Coding 3
Расширение режима : CM (complete main)
Параметр Endianness формата : Big
Идентификатор кодека : A_AC3
Продолжительность : 1 ч. 27 м.
Вид битрейта : Постоянный
Битрейт : 224 Кбит/сек
Каналы : 2 канала
Расположение каналов : Front: L R
Частота : 48,0 КГц
Битовая глубина : 16 бит
Метод сжатия : С потерями
Размер потока : 140 Мбайт (5%)
Заголовок : TRACK_01_MVO_RUS
Язык : Russian
Default : Да
Forced : Да

Аудио #2
Идентификатор : 3
Формат : AC-3
Формат/Информация : Audio Coding 3
Расширение режима : CM (complete main)
Параметр Endianness формата : Big
Идентификатор кодека : A_AC3
Продолжительность : 1 ч. 27 м.
Вид битрейта : Постоянный
Битрейт : 192 Кбит/сек
Каналы : 2 канала
Расположение каналов : Front: L R
Частота : 48,0 КГц
Битовая глубина : 16 бит
Метод сжатия : С потерями
Размер потока : 120 Мбайт (4%)
Заголовок : TRACK_02_AVO_RUS_Dol'skij
Язык : Russian
Default : Нет
Forced : Нет

Аудио #3
Идентификатор : 4
Формат : AC-3
Формат/Информация : Audio Coding 3
Расширение режима : CM (complete main)
Параметр Endianness формата : Big
Идентификатор кодека : A_AC3
Продолжительность : 1 ч. 27 м.
Вид битрейта : Постоянный
Битрейт : 192 Кбит/сек
Каналы : 2 канала
Расположение каналов : Front: L R
Частота : 48,0 КГц
Битовая глубина : 16 бит
Метод сжатия : С потерями
Размер потока : 120 Мбайт (4%)
Заголовок : TRACK_03_AVO_RUS_Kuznecov
Язык : Russian
Default : Нет
Forced : Нет

Аудио #4
Идентификатор : 5
Формат : AC-3
Формат/Информация : Audio Coding 3
Расширение режима : CM (complete main)
Параметр Endianness формата : Big
Идентификатор кодека : A_AC3
Продолжительность : 1 ч. 27 м.
Вид битрейта : Постоянный
Битрейт : 448 Кбит/сек
Каналы : 6 каналов
Расположение каналов : Front: L C R, Side: L R, LFE
Частота : 48,0 КГц
Битовая глубина : 16 бит
Метод сжатия : С потерями
Размер потока : 279 Мбайт (9%)
Заголовок : TRACK_04_MVO_UKR_Омикрон
Язык : Ukrainian
Default : Нет
Forced : Нет

Аудио #5
Идентификатор : 6
Формат : AC-3
Формат/Информация : Audio Coding 3
Расширение режима : CM (complete main)
Параметр Endianness формата : Big
Идентификатор кодека : A_AC3
Продолжительность : 1 ч. 27 м.
Вид битрейта : Постоянный
Битрейт : 448 Кбит/сек
Каналы : 6 каналов
Расположение каналов : Front: L C R, Side: L R, LFE
Частота : 48,0 КГц
Битовая глубина : 16 бит
Метод сжатия : С потерями
Размер потока : 279 Мбайт (9%)
Заголовок : TRACK_05_ORIGINAL_ENG
Язык : English
Default : Нет
Forced : Нет

Текст #1
Идентификатор : 7
Формат : UTF-8
Идентификатор кодека : S_TEXT/UTF8
Идентификатор кодека/Информация : UTF-8 Plain Text
Заголовок : TEXT_01_SUB_RUS
Язык : Russian
Default : Нет
Forced : Нет

Текст #2
Идентификатор : 8
Формат : UTF-8
Идентификатор кодека : S_TEXT/UTF8
Идентификатор кодека/Информация : UTF-8 Plain Text
Заголовок : TEXT_02_SUB_ENG
Язык : English
Default : Нет
Forced : Нет

Меню
00:00:00.000 : en:00:00:00.000
00:10:02.602 : en:00:10:02.602
00:20:03.202 : en:00:20:03.202
00:30:03.802 : en:00:30:03.802
00:40:04.402 : en:00:40:04.402
00:50:05.002 : en:00:50:05.002
01:00:05.602 : en:01:00:05.602
01:10:06.202 : en:01:10:06.202
01:20:06.802 : en:01:20:06.802


Релиз от:
Автор рипа:
загрузка...
Правила, инструкции, FAQ!!!
Торрент  Добавлен [07 сен 2014, 20:06] Скачать торрент
Скачать торрент
[ Размер 15.35 КБ / Просмотров 16 ]

Статус
Проверен 
 
Размер  2.96 ГБ
Приватный: Нет (DHT включён)
.torrent скачан  0
Как залить торрент? | Как скачать Torrent? | Как смотреть и слушать онлайн?  


     Отправить личное сообщение
   
Страница 1 из 1
Показать сообщения за:  Поле сортировки  
Начать новую тему Ответить на тему

   Похожие торренты   Автор   Ответы   Просмотры   Последнее сообщение 
В этой теме нет новых непрочитанных сообщений. Скачать торрент Человек с Земли / The Man from Earth (Ричард Шенкман / Richard Schenkman) [2007, США, фантастика, драма, BDRip 720p]

в форуме 720p | 1080p, Размер: 3.42 ГБ, Здоровье: 100%

Anonymous

0
57|19

60
3

20 апр 2014, 08:53

Anonymous Перейти к последнему сообщению

В этой теме нет новых непрочитанных сообщений. Скачать торрент Проверен [iPod] Человек с Земли / The Man from Earth (Ричард Шенкман / Richard Schenkman) [2007, фантастика, драма, HDRip]

в форуме Фильмы для iPod, iPhone, iPad, Размер: 381.18 МБ, Здоровье: 100%

Anonymous

0
2|1

38
0

18 май 2015, 10:46

Anonymous Перейти к последнему сообщению

В этой теме нет новых непрочитанных сообщений. Скачать торрент Проверен [iPhone] Человек с Земли / The Man from Earth (Ричард Шенкман / Richard Schenkman) [2007, фантастика, драма, HDRip, 480x272]

в форуме Фильмы для iPod, iPhone, iPad, Размер: 474.77 МБ, Здоровье: 100%

Anonymous

0
3|1

47
1

18 май 2015, 10:53

Anonymous Перейти к последнему сообщению

В этой теме нет новых непрочитанных сообщений. Скачать торрент Проверен Астероид против Земли / Asteroid vs. Earth (2014) BDRip | L1

в форуме Фантастика, Фэнтези, Размер: 1.31 ГБ, Здоровье: 100%

Anonymous

0
147|146

139
97

16 авг 2015, 00:14

Anonymous Перейти к последнему сообщению

В этой теме нет новых непрочитанных сообщений. Скачать торрент Проверен Астероид против Земли / Asteroid vs. Earth (2014) BDRip 1080p

в форуме 720p | 1080p, Размер: 7.72 ГБ, Здоровье: 74%

Гость

0
73|98

103
55

16 авг 2015, 00:09

Гость Перейти к последнему сообщению



Сейчас этот форум просматривают: нет зарегистрированных пользователей и гости: 1


Вы не можете начинать темы
Вы не можете отвечать на сообщения
Вы не можете редактировать свои сообщения
Вы не можете удалять свои сообщения
Вы не можете добавлять вложения

Перейти:  

!ВНИМАНИЕ!
 Ресурс не предоставляет электронные версии произведений, а занимается лишь коллекционированием и каталогизацией ссылок, присылаемых и публикуемых на форуме нашими читателями. Если вы являетесь правообладателем какого-либо представленного материала и не желаете чтобы ссылка на него находилась в нашем каталоге, свяжитесь с нами и мы незамедлительно удалим её. Файлы для обмена на трекере предоставлены пользователями сайта, и администрация не несёт ответственности за их содержание. Просьба не заливать файлы, защищенные авторскими правами, а также файлы нелегального содержания!