На всех торрентах на трекере установлена скидка на скачивание в размере 100 процентов(а).
 Возможность скачивания торрента НЕ зависит от ограничений при низком ратио, низком аплоаде, требуемом ратио или требуемом аплоаде.


Начать новую тему Ответить на тему
Статистика раздачи
Размер: 1.37 ГБ | Добавлен: 25 авг 2014, 20:08 | Скачали: 430
Сидеров: 19  [0 байт/сек]    Личеров: 2  [0 байт/сек]
Пред. тема | След. тема 

Автор
Сообщение

СообщениеДобавлено: 25 авг 2014, 20:08 

Страна: Канада
Производство: Cinetel Films, Eagle Pictures, Insight Film Studios
Жанр: Фантастика, триллер
Год выпуска: 2007
Продолжительность: 01:30:28
Перевод: Профессиональный многоголосый
Оригинальная аудиодорожка: Нет
Режиссер: Джейсон Бурк

В ролях: Джейсон Пристли, Лу Даймонд Филлипс, Гарвин Санфорд, Гэри Хадсон, Стефани фон Пфеттен, Майкл Эклунд, Брэдли Страйкер, Эрин Карплак, Райан Бут, Майкл Беняер

Описание: Сверхсекретный военный проект путешествий во времени срочно закрывается правительством когда выясняется, что эти перемещения способны вызвать глобальное уничтожение планеты. Но ведущий ученый таинственно исчезает, вместе с ним исчезает и готовый прототип устройства… Поиски не дают никакого результата. Когда его имя случайно всплывает в списках пассажиров рейса небольшой авиакомпании, то на захват бросаются все силы, и начинается смертельная погоня за самолетом, способным перемещаться не только в пространстве, но и во времени…



Исходник: DVD5 R2
Тип релиза: DVDRip
Контейнер: AVI
Видео: XviD, 1963 Кбит/с, 704х368
Аудио: АС3, 2 ch, 192 Кбит/с

Общее
Полное имя : D:залитьТочка прерывания.avi
Формат : AVI
Формат/Информация : Audio Video Interleave
Размер файла : 1,37 Гбайт
Продолжительность : 1 ч. 30 м.
Общий поток : 2164 Кбит/сек
Программа кодирования : VirtualDubMod 1.5.10.3 | http://www.virtualdub-fr.org || (build 2550/release)
Библиотека кодирования : VirtualDubMod build 2550/release

Видео
Идентификатор : 0
Формат : MPEG-4 Visual
Профиль формата : Advanced Simple@L5
Параметр BVOP формата : 2
Параметр QPel формата : Нет
Параметр GMC формата : Без точки перехода
Параметр матрицы формата : Default (MPEG)
Идентификатор кодека : XVID
Идентификатор кодека/Подсказка : XviD
Продолжительность : 1 ч. 30 м.
Битрейт : 1963 Кбит/сек
Ширина : 704 пикселя
Высота : 368 пикселей
Соотношение сторон : 1,913
Частота кадров : 23,976 кадра/сек
Цветовое пространство : YUV
Субдискретизация насыщенности : 4:2:0
Битовая глубина : 8 бит
Тип развёртки : Прогрессивная
Метод сжатия : С потерями
Бит/(Пиксели*Кадры) : 0.316
Размер потока : 1,24 Гбайт (91%)
Библиотека кодирования : XviD 1.2.1 (UTC 2008-12-04)

Аудио
Идентификатор : 1
Формат : AC-3
Формат/Информация : Audio Coding 3
Расширение режима : CM (complete main)
Параметр Endianness формата : Big
Идентификатор кодека : 2000
Продолжительность : 1 ч. 30 м.
Вид битрейта : Постоянный
Битрейт : 192 Кбит/сек
Каналы : 2 канала
Расположение каналов : Front: L R
Частота : 48,0 КГц
Битовая глубина : 16 бит
Метод сжатия : С потерями
Размер потока : 124 Мбайт (9%)
Выравнивание : Разделение по промежуткам
Продолжительность промежутка : 42 мс. (1,00 видеокадр)
Время предзагрузки промежутка : 500 мс.


Автор рипа:
загрузка...
Правила, инструкции, FAQ!!!
Торрент  Добавлен [25 авг 2014, 20:08] Скачать торрент
Скачать торрент
[ Размер 15.53 КБ / Просмотров 10 ]

Статус
Проверен 
 
Размер  1.37 ГБ
Приватный: Нет (DHT включён)
.torrent скачан  430
Как залить торрент? | Как скачать Torrent? | Как смотреть и слушать онлайн?  


     Отправить личное сообщение
   
Страница 1 из 1
Показать сообщения за:  Поле сортировки  
Начать новую тему Ответить на тему

   Похожие торренты   Автор   Ответы   Просмотры   Последнее сообщение 
В этой теме нет новых непрочитанных сообщений. Скачать торрент Проверен M. Pottenger / М. Поттенджер - The East Point and the Antivertex / Восточная точка и Антивертекс. [2010, PDF, RUS]

в форуме Астрология, Размер: 9.61 МБ, Здоровье: 0%

Anonymous

0
0|0

1
0

11 сен 2016, 23:07

Anonymous Перейти к последнему сообщению

В этой теме нет новых непрочитанных сообщений. Скачать торрент Поближе / A Little Closer (2011) DVDRip | P | Точка Zрения

в форуме Драмы, Мелодрамы, Размер: 872.29 МБ, Здоровье: 0%

Anonymous

0
0|0

23
0

25 янв 2014, 01:33

Anonymous Перейти к последнему сообщению

В этой теме нет новых непрочитанных сообщений. Скачать торрент Проверен Горячая точка / Flashpoint [S01-05] (2008-2012) DVDRip, WEB-DLRip | Universal Russia

в форуме Зарубежные сериалы, Размер: 33 ГБ, Здоровье: 43%

Anonymous

0
18|41

90
38

15 дек 2014, 00:40

Anonymous Перейти к последнему сообщению

В этой теме нет новых непрочитанных сообщений. Скачать торрент Проверен Браун Дэн - Точка обмана [Сергей Межов, 2007, 128 kbps]

в форуме Зарубежная фантастика, фэнтези, мистика, ужасы, Размер: 1.08 ГБ, Здоровье: 0%

Anonymous

0
0|0

0
0

11 сен 2016, 12:53

Anonymous Перейти к последнему сообщению

В этой теме нет новых непрочитанных сообщений. Скачать торрент Проверен Дэн Браун - Точка Обмана [Сергей Межов, 2007, 80 kbps]

в форуме Аудиокниги (AAC, ALAC), Размер: 675.66 МБ, Здоровье: 0%

Anonymous

0
0|0

1
0

28 авг 2016, 18:13

Anonymous Перейти к последнему сообщению



Сейчас этот форум просматривают: нет зарегистрированных пользователей и гости: 1


Вы не можете начинать темы
Вы не можете отвечать на сообщения
Вы не можете редактировать свои сообщения
Вы не можете удалять свои сообщения
Вы не можете добавлять вложения

Перейти:  

!ВНИМАНИЕ!
 Ресурс не предоставляет электронные версии произведений, а занимается лишь коллекционированием и каталогизацией ссылок, присылаемых и публикуемых на форуме нашими читателями. Если вы являетесь правообладателем какого-либо представленного материала и не желаете чтобы ссылка на него находилась в нашем каталоге, свяжитесь с нами и мы незамедлительно удалим её. Файлы для обмена на трекере предоставлены пользователями сайта, и администрация не несёт ответственности за их содержание. Просьба не заливать файлы, защищенные авторскими правами, а также файлы нелегального содержания!