На всех торрентах на трекере установлена скидка на скачивание в размере 100 процентов(а).
 Возможность скачивания торрента НЕ зависит от ограничений при низком ратио, низком аплоаде, требуемом ратио или требуемом аплоаде.


Начать новую тему Ответить на тему
Статистика раздачи
Размер: 1.37 ГБ | Добавлен: 01 мар 2013, 13:58 | Скачали: 0
Сидеров: 56  [0 байт/сек]    Личеров: 19  [0 байт/сек]
Пред. тема | След. тема 

Автор
Сообщение

СообщениеДобавлено: 01 мар 2013, 13:58 

Атлант расправил плечи: Часть 2



Страна: США
Жанр: фантастика, драма, детектив
Год выпуска: 2012
Продолжительность: 01:51:34

Перевод: Одноголосый закадровый
Субтитры: нет
Режиссер: Джон Путч / John Putch

В фильме снимались: Саманта Мэтис, Джейсон Бех, Эсай Моралес, Патрик Фабиан, Ким Родс, Ричард Т. Джонс, Д.Б. Суини, Пол МакКрейн, Джон Рубинстайн, Роберт Пикардо, Рэй Уайз, Дидрих Бадер


Вкратце: Мировая экономика на грани коллапса. Безработица выросла до 24%. Газ стоит $42 за галлон. Блестящие создатели, от художников до промышленников, продолжают загадочно исчезать по неизвестным причинам. Дэгни Таггарт обнаружила возможный путь разрешения проблемы - заброшенную перед кризисом фабрику с необычным мотором, способным дать любое количество энергии для Земли. Но, мотор мертв... Нет более никого, кто бы мог раскрыть его тайну. Но Дэгни не намерена сдаваться - времени осталось немного, а найти изобретателя мотора - означает спасти мир.




Детям до 13 лет просмотр не желателен


Доп. Информация

Сценарий: Дьюк Сэндфер / Duke Sandefur, Брайан Патрик О’Тул / Brian Patrick O'Toole, Дункан Скотт / Duncan Scott, Айн Рэнд / Ayn Rand
Продюсер: Джон Аглиалоро / John Aglialoro, Джефф Фрейлих / Jeff Freilich, Хэрмон Каслоу / Harmon Kaslow, Брюс МакНалл / Bruce McNall, The Stephenson Family
Оператор: Росс Берриман / Ross Berryman
Композитор: Крис П. Бэйкон / Chris P. Bacon[br][/br]Бюджет: $10 000 000
Сборы в США: $3 336 053
Мировая премьера: 12 октября 2012



Качество: HDRip (Исходник неизвестен)
Контейнер: AVI
Видео: XviD, 720x400 (16:9), 1363 kbps, 23,976 fps, 0,197 bpp
Аудио: AC3 / 5.1 / 48 kHz / 384 kbps / 16 bit


Media Info
General
Complete name : F:\Atlant.raspravil.ple4i.2.2012.L.HDRip.1400.avi
Format : AVI
Format/Info : Audio Video Interleave
File size : 1.37 GiB
Duration : 1h 51mn
Overall bit rate : 1 757 Kbps
Writing application : VirtualDubMod 1.5.10.2 (build 2540/release)
Writing library : VirtualDubMod build 2540/release[br][/br]Video
ID : 0
Format : MPEG-4 Visual
Format profile : Advanced Simple@L5
Format settings, BVOP : 2
Format settings, QPel : No
Format settings, GMC : No warppoints
Format settings, Matrix : Default (H.263)
Codec ID : XVID
Codec ID/Hint : XviD
Duration : 1h 51mn
Bit rate : 1 363 Kbps
Width : 720 pixels
Height : 400 pixels
Display aspect ratio : 16:9
Frame rate : 23.976 fps
Color space : YUV
Chroma subsampling : 4:2:0
Bit depth : 8 bits
Scan type : Progressive
Compression mode : Lossy
Bits/(Pixel*Frame) : 0.197
Stream size : 1.06 GiB (78%)
Writing library : XviD 1.2.1 (UTC 2008-12-04)
Audio
ID : 1
Format : AC-3
Format/Info : Audio Coding 3
Mode extension : CM (complete main)
Codec ID : 2000
Duration : 1h 51mn
Bit rate mode : Constant
Bit rate : 384 Kbps
Channel(s) : 6 channels
Channel positions : Front: L C R, Side: L R, LFE
Sampling rate : 48.0 KHz
Bit depth : 16 bits
Compression mode : Lossy
Stream size : 306 MiB (22%)
Alignment : Split accross interleaves
Interleave, duration : 42 ms (1.00 video frame)
Interleave, preload duration : 500 ms



загрузка...
Правила, инструкции, FAQ!!!
Торрент  Добавлен [01 мар 2013, 13:58] Скачать торрент
Скачать торрент
[ Размер 14.26 КБ / Просмотров 17 ]

Статус  
 
Размер  1.37 ГБ
Приватный: Нет (DHT включён)
.torrent скачан  0
Как залить торрент? | Как скачать Torrent? | Как смотреть и слушать онлайн?  


     Отправить личное сообщение
   
Страница 1 из 1
Показать сообщения за:  Поле сортировки  
Начать новую тему Ответить на тему

   Похожие торренты   Автор   Ответы   Просмотры   Последнее сообщение 
В этой теме нет новых непрочитанных сообщений. Скачать торрент Проверен Рэнд Айн - Атлант расправил плечи [Виктор Попов, Юлия Домаш, Станислав Ананьин, 2012, Аудиоспектакль, 128 kbps]

в форуме Аудиокниги (AAC, ALAC), Размер: 670.77 МБ, Здоровье: 0%

Anonymous

0
0|0

6
0

28 авг 2016, 19:18

Anonymous Перейти к последнему сообщению

В этой теме нет новых непрочитанных сообщений. Скачать торрент Проверен Айн Рэнд - Атлант расправил плечи [2011, HTML, RUS]

в форуме Зарубежная литература (XX и XXI век), Размер: 3.06 МБ, Здоровье: 100%

Anonymous

0
39|11

23
4

08 сен 2016, 20:08

Anonymous Перейти к последнему сообщению

В этой теме нет новых непрочитанных сообщений. Скачать торрент Проверен Айн Рэнд - Атлант расправил плечи [2011, ePUB, RUS]

в форуме Зарубежная литература (XX и XXI век), Размер: 1.86 МБ, Здоровье: 100%

Anonymous

0
34|33

16
1

08 сен 2016, 20:13

Anonymous Перейти к последнему сообщению

В этой теме нет новых непрочитанных сообщений. Скачать торрент Американский пирог представляет: Книга Любви / Американский пирог 7 / American Pie Presents: The Book of Love (Джон Путч / John Putch) [2009, комедия, HDRip] [UNRATED] Dub

в форуме Комедии, Размер: 1.46 ГБ, Здоровье: 0%

Anonymous

0
0|0

94
0

06 фев 2014, 11:44

Anonymous Перейти к последнему сообщению

В этой теме нет новых непрочитанных сообщений. Скачать торрент В погоне за наследством / Было бы желание / Where There’s a Will (Джон Патч / John Putch) [2006, США, Комедия, драма, DVDRip] DVO телеканал Hallmark

в форуме Комедии, Размер: 1.46 ГБ, Здоровье: 100%

Anonymous

0
20|1

73
1

19 апр 2014, 18:51

Anonymous Перейти к последнему сообщению



Сейчас этот форум просматривают: нет зарегистрированных пользователей и гости: 1


Вы не можете начинать темы
Вы не можете отвечать на сообщения
Вы не можете редактировать свои сообщения
Вы не можете удалять свои сообщения
Вы не можете добавлять вложения

Перейти:  

!ВНИМАНИЕ!
 Ресурс не предоставляет электронные версии произведений, а занимается лишь коллекционированием и каталогизацией ссылок, присылаемых и публикуемых на форуме нашими читателями. Если вы являетесь правообладателем какого-либо представленного материала и не желаете чтобы ссылка на него находилась в нашем каталоге, свяжитесь с нами и мы незамедлительно удалим её. Файлы для обмена на трекере предоставлены пользователями сайта, и администрация не несёт ответственности за их содержание. Просьба не заливать файлы, защищенные авторскими правами, а также файлы нелегального содержания!