На всех торрентах на трекере установлена скидка на скачивание в размере 100 процентов(а).
 Возможность скачивания торрента НЕ зависит от ограничений при низком ратио, низком аплоаде, требуемом ратио или требуемом аплоаде.


Начать новую тему Ответить на тему
Статистика раздачи
Размер: 1.46 ГБ | Добавлен: 28 фев 2013, 12:50 | Скачали: 0
Сидеров: 30  [0 байт/сек]    Личеров: 10  [0 байт/сек]
Пред. тема | След. тема 

Автор
Сообщение

СообщениеДобавлено: 28 фев 2013, 12:50 

Йоко / Yoko



Страна: Германия, Австрия, Швеция
Жанр: фэнтези, комедия, приключения
Год выпуска: 2012
Продолжительность: 01:38:41
Перевод: Профессиональный (многоголосый закадровый)
Cубтитры: нет

Режиссер: Франциска Бух / Franziska Buch


В фильме снимались:
Хоан Дан-Ву, Фридрих Хейн, Тобиас Моретти, Джессика Шварц, Юстус фон Донаньи и др.


Вкратце:
В своем домике на дереве 11-летняя девочка Пиа обнаруживает странное и необычное лохматое существо. Это Йоко, обладающий волшебными способностями йети из Гималаев. Попавший в Германию по вине не чистого на руку охотника Йоко переворачивает жизнь Пии вверх дном. Охотник заключает сделку с местным директором зоопарка, и теперь Пиа вместе со своим приятелем Лукасом должны помочь новому другу.



Качество видео: HDRip
Формат видео: AVI
Видео: 720x400 (1.80:1), 25 fps, XviD build 50 ~1913 kbps avg, 0.27 bit/pixel
Аудио: 48 kHz, AC3 Dolby Digital, 2/0 (L,R) ch, ~192 kbps


MediaInfo
Общее
Полное имя : C:\Users\\Videos\Yoko.2012.P.HDRip.avi
Формат : AVI
Формат/Информация : Audio Video Interleave
Размер файла : 1,46 Гбайт
Продолжительность : 1 ч. 38 м.
Общий поток : 2115 Кбит/сек
Программа кодирования : VirtualDubMod 1.5.10.3 | http://www.virtualdub-fr.org || (build 2550/release)
Библиотека кодирования : VirtualDubMod build 2550/release[br][/br]Видео
Идентификатор : 0
Формат : MPEG-4 Visual
Профиль формата : Advanced Simple@L5
Параметр BVOP формата : 2
Параметр QPel формата : Нет
Параметр GMC формата : Без точки перехода
Параметр матрицы формата : Default (MPEG)
Идентификатор кодека : XVID
Идентификатор кодека/Подсказка : XviD
Продолжительность : 1 ч. 38 м.
Битрейт : 1913 Кбит/сек
Ширина : 720 пикселей
Высота : 400 пикселей
Соотношение сторон : 16:9
Частота кадров : 25,000 кадров/сек
Цветовое пространство : YUV
Субдискретизация насыщенности : 4:2:0
Битовая глубина : 8 бит
Тип развёртки : Прогрессивная
Метод сжатия : С потерями
Бит/(Пиксели*Кадры) : 0.266
Размер потока : 1,32 Гбайт (90%)
Библиотека кодирования : XviD 1.2.1 (UTC 2008-12-04)[br][/br]Аудио
Идентификатор : 1
Формат : AC-3
Формат/Информация : Audio Coding 3
Расширение режима : CM (complete main)
Параметр Endianness формата : Big
Идентификатор кодека : 2000
Продолжительность : 1 ч. 38 м.
Вид битрейта : Постоянный
Битрейт : 192 Кбит/сек
Каналы : 2 канала
Расположение каналов : Front: L R
Частота : 48,0 КГц
Битовая глубина : 16 бит
Метод сжатия : С потерями
Размер потока : 136 Мбайт (9%)
Выравнивание : Разделение по промежуткам
Продолжительность промежутка : 40 мс. (1,00 видеокадр)
Время предзагрузки промежутка : 500 мс.



загрузка...
Правила, инструкции, FAQ!!!
Торрент  Добавлен [28 фев 2013, 12:50] Скачать торрент
Скачать торрент
[ Размер 15.17 КБ / Просмотров 9 ]

Статус  
 
Размер  1.46 ГБ
Приватный: Нет (DHT включён)
.torrent скачан  0
Как залить торрент? | Как скачать Torrent? | Как смотреть и слушать онлайн?  


     Отправить личное сообщение
   
Страница 1 из 1
Показать сообщения за:  Поле сортировки  
Начать новую тему Ответить на тему

   Похожие торренты   Автор   Ответы   Просмотры   Последнее сообщение 
В этой теме нет новых непрочитанных сообщений. Скачать торрент Король-лягушонок или Железный Генрих / Der Froschkonig oder der eiserne Heinrich (Франциска Бух / Franziska Buch) [2008, Германия, Сказка, DVDRip]

в форуме Детское, Семейное кино, Размер: 794.01 МБ, Здоровье: 100%

Anonymous

0
23|5

85
1

17 фев 2014, 08:07

Anonymous Перейти к последнему сообщению

В этой теме нет новых непрочитанных сообщений. Скачать торрент Повар-вор / C(r)ook (Пепе Данкарт / Pepe Danquart) [2004, Германия, Австрия, Комедия, криминал, DVDRip] DUB

в форуме Комедии, Размер: 748.29 МБ, Здоровье: 100%

Anonymous

0
3|1

40
0

28 апр 2014, 22:42

Anonymous Перейти к последнему сообщению

В этой теме нет новых непрочитанных сообщений. Скачать торрент Там, где живут чудовища / Where the Wild Things Are (Спайк Джонз / Spike Jonze) [2009, США, Германия, фэнтези, драма, приключения, семейный, HDRip] DUB

в форуме Фантастика, Фэнтези, Размер: 751.6 МБ, Здоровье: 100%

Anonymous

0
47|16

51
1

16 фев 2014, 13:06

Anonymous Перейти к последнему сообщению

В этой теме нет новых непрочитанных сообщений. Скачать торрент Мумия: Гробница Императора Драконов / The Mummy: Tomb of the Dragon Emperor (Роб Коэн / Rob Cohen) [2008, Германия, США, Канада, Боевик, Фэнтези, Приключения, HDRip-AVC] Dub

в форуме Боевики, Размер: 745.26 МБ, Здоровье: 100%

Anonymous

0
18|6

75
0

02 апр 2014, 08:21

Anonymous Перейти к последнему сообщению

В этой теме нет новых непрочитанных сообщений. Скачать торрент Солдаты неудачи / Tropic Thunder (Бен Стиллер / Ben Stiller) [2008, США, Германия, боевик, комедия, приключения, HDRip] [Director's Cut / Pежиссерская Bерсия] DUB + MVO

в форуме Боевики, Размер: 747.65 МБ, Здоровье: 100%

Anonymous

0
14|5

30
0

16 фев 2014, 13:07

Anonymous Перейти к последнему сообщению



Сейчас этот форум просматривают: нет зарегистрированных пользователей и гости: 2


Вы не можете начинать темы
Вы не можете отвечать на сообщения
Вы не можете редактировать свои сообщения
Вы не можете удалять свои сообщения
Вы не можете добавлять вложения

Перейти:  

!ВНИМАНИЕ!
 Ресурс не предоставляет электронные версии произведений, а занимается лишь коллекционированием и каталогизацией ссылок, присылаемых и публикуемых на форуме нашими читателями. Если вы являетесь правообладателем какого-либо представленного материала и не желаете чтобы ссылка на него находилась в нашем каталоге, свяжитесь с нами и мы незамедлительно удалим её. Файлы для обмена на трекере предоставлены пользователями сайта, и администрация не несёт ответственности за их содержание. Просьба не заливать файлы, защищенные авторскими правами, а также файлы нелегального содержания!