На всех торрентах на трекере установлена скидка на скачивание в размере 100 процентов(а).
 Возможность скачивания торрента НЕ зависит от ограничений при низком ратио, низком аплоаде, требуемом ратио или требуемом аплоаде.


Начать новую тему Ответить на тему
Статистика раздачи
Размер: 1.4 ГБ | Добавлен: 04 авг 2014, 08:06 | Скачали: 0
Сидеров: 11  [0 байт/сек]    Личеров: 4  [0 байт/сек]
Пред. тема | След. тема 

Автор
Сообщение

СообщениеДобавлено: 04 авг 2014, 08:06 

Страна: США
Жанр: фэнтези, драма, комедия
Год выпуска: 2011
Продолжительность: 01:21:33

Перевод: Профессиональный (дублированный) Дисней
Cубтитры: нет
Оригинальная аудиодорожка: нет

Режиссер: Джил Джангер / Gil Junger

В ролях: Крис Зилка, Линдси Шоу, Кэсси Сербо, Рода Гриффис, Елена Варела, Андреа Пауэлл, Люсиус Бастон мл., Каллен Мосс, Карисса Капобьянко, Кэти Гарнер

Описание: Сюжет вращается вокруг Амбер, стервозной популярной девушки, которая умирает от удара током. Ее не пустят на небеса, если она не поможет самой непопулярной в школе девушке — Лизе — стать королевой выпускного бала в течение недели, но… все пошло не так, как планировалось.





Доп. информация: Запись звука и синхронизация vedigo

Качество видео: DVDRip
Формат видео: AVI

Видео: XviD 720x400 (16:9)) 23.976fps Bit rate 2249Kbps Bits/Pixel 0.326
Аудио: AC3 48.0 KHz 2ch. 192kbps
General
Complete name : E:\torrent\Komandnyi duh.avi
Format : AVI
Format/Info : Audio Video Interleave
File size : 1.40 GiB
Duration : 1h 21mn
Overall bit rate : 2 450 Kbps
Writing library : VirtualDub build 32842/release

Video
ID : 0
Format : MPEG-4 Visual
Format profile : Advanced Simple@L5
Format settings, BVOP : Yes
Format settings, QPel : No
Format settings, GMC : No warppoints
Format settings, Matrix : Default (H.263)
Codec ID : XVID
Codec ID/Hint : XviD
Duration : 1h 21mn
Bit rate : 2 249 Kbps
Width : 720 pixels
Height : 400 pixels
Display aspect ratio : 16:9
Frame rate : 23.976 fps
Color space : YUV
Chroma subsampling : 4:2:0
Bit depth : 8 bits
Scan type : Progressive
Bits/(Pixel*Frame) : 0.326
Stream size : 1.28 GiB (92%)
Writing library : XviD 1.2.1 (UTC 2008-12-04)

Audio
ID : 1
Format : AC-3
Format/Info : Audio Coding 3
Mode extension : CM (complete main)
Codec ID : 2000
Duration : 1h 21mn
Bit rate mode : Constant
Bit rate : 192 Kbps
Channel(s) : 2 channels
Channel positions : Front: L R
Sampling rate : 48.0 KHz
Bit depth : 16 bits
Stream size : 112 MiB (8%)
Alignment : Aligned on interleaves
Interleave, duration : 42 ms (1.00 video frame)
Interleave, preload duration : 512 ms
загрузка...
Правила, инструкции, FAQ!!!
Торрент  Добавлен [04 авг 2014, 08:06] Скачать торрент
Скачать торрент
[ Размер 14.54 КБ / Просмотров 14 ]

Статус
Проверен 
 
Размер  1.4 ГБ
Приватный: Нет (DHT включён)
.torrent скачан  0
Как залить торрент? | Как скачать Torrent? | Как смотреть и слушать онлайн?  


     Отправить личное сообщение
   
Страница 1 из 1
Показать сообщения за:  Поле сортировки  
Начать новую тему Ответить на тему

   Похожие торренты   Автор   Ответы   Просмотры   Последнее сообщение 
В этой теме нет новых непрочитанных сообщений. Скачать торрент Черный рыцарь / Black Knight (Джил Джангер / Gil Junger) [2001, США, фэнтези, комедия, приключения, BDRip] MVO

в форуме Фантастика, Фэнтези, Размер: 1.45 ГБ, Здоровье: 100%

Anonymous

0
55|18

66
0

22 апр 2014, 11:41

Anonymous Перейти к последнему сообщению

В этой теме нет новых непрочитанных сообщений. Скачать торрент Проверен [iPhone] Оно / It (Томми Ли Уоллес) [1990 г., ужасы, триллер, фэнтези, комедия, драма, приключения, детектив, DVDRip]

в форуме Фильмы для iPod, iPhone, iPad, Размер: 977.23 МБ, Здоровье: 100%

Гость

0
1|0

34
0

18 май 2015, 10:38

Гость Перейти к последнему сообщению

В этой теме нет новых непрочитанных сообщений. Скачать торрент Проверен (Pop) A-Teens - Teen Spirit - 2001, FLAC (tracks+.cue), lossless

в форуме Зарубежная музыка, Размер: 332.01 МБ, Здоровье: 0%

Anonymous

0
0|0

3
0

12 авг 2016, 20:16

Anonymous Перейти к последнему сообщению

В этой теме нет новых непрочитанных сообщений. Скачать торрент Проверен Реальная сказка (Андрей Мармонтов) [2011, Россия, Фэнтези, драма, комедия, семейный, сказка, BDRemux 1080i]

в форуме Наше кино (HD Video), Размер: 16.84 ГБ, Здоровье: 100%

Anonymous

0
14|6

87
0

12 апр 2015, 10:57

Anonymous Перейти к последнему сообщению

В этой теме нет новых непрочитанных сообщений. Скачать торрент Проверен [iPhone] Резня / Carnage (Роман Полански / Roman Polanski) [2011, драма, комедия, DVDRip, 480x208]

в форуме Фильмы для iPod, iPhone, iPad, Размер: 420.43 МБ, Здоровье: ???%

Гость

0
0|15

75
0

18 май 2015, 10:55

Гость Перейти к последнему сообщению



Сейчас этот форум просматривают: нет зарегистрированных пользователей и гости: 1


Вы не можете начинать темы
Вы не можете отвечать на сообщения
Вы не можете редактировать свои сообщения
Вы не можете удалять свои сообщения
Вы не можете добавлять вложения

Перейти:  

!ВНИМАНИЕ!
 Ресурс не предоставляет электронные версии произведений, а занимается лишь коллекционированием и каталогизацией ссылок, присылаемых и публикуемых на форуме нашими читателями. Если вы являетесь правообладателем какого-либо представленного материала и не желаете чтобы ссылка на него находилась в нашем каталоге, свяжитесь с нами и мы незамедлительно удалим её. Файлы для обмена на трекере предоставлены пользователями сайта, и администрация не несёт ответственности за их содержание. Просьба не заливать файлы, защищенные авторскими правами, а также файлы нелегального содержания!
cron