На всех торрентах на трекере установлена скидка на скачивание в размере 100 процентов(а).
 Возможность скачивания торрента НЕ зависит от ограничений при низком ратио, низком аплоаде, требуемом ратио или требуемом аплоаде.


Начать новую тему Ответить на тему
Статистика раздачи
Размер: 1.37 ГБ | Добавлен: 08 июл 2014, 21:28 | Скачали: 336
Сидеров: 8  [0 байт/сек]    Личеров: 0  [0 байт/сек]
Пред. тема | След. тема 

Автор
Сообщение

СообщениеДобавлено: 08 июл 2014, 21:28 

Название: Немезида
Оригинальное название: Nemesis
Год выхода: 1992
Жанр: фантастика, боевик, триллер
Режиссер: Альберт Пьюн

В ролях: Оливье Грюнер, Тим Томерсон, Кэри-Хироюки Тагава, Мерл Кеннеди, Юдзи Окумото, Марджори Монахэн

О фильме:
Кибернетика достигла такого могущества, что любая часть тела может быть заменена, даже мозг. Эта сверхтехнология порождает существа, которые являются скорее киборгами, чем людьми.

Секретный агент Алекс после многочисленых ранений подвергся кибернетической хирургии. Он попытался отказаться вернуться на службу, но его обвинили в контрабанде и имплатировали в сердце бомбу, которая может быть взорвана в любой момент. Теперь у Алекса нет выбора, он должен отыскать похищенный компьютерный чип, за которым отчаянно охотятся террористы. Этот чип — ключ к плану киборгов захватить власть на Земле.

Основная подозреваемая — Джаред, коллега и бывшая любовница Алекса. Но, оказавшись у цели, Алекс обнаруживает, что его используют как наживку, на которую можно «выманить» Джаред и террористов.



Страна: США, Дания
Продолжительность: 01:35:42
Перевод: Профессиональный (двухголосый) (Twister)


Качество: BDRip (Nemesis.1992.1080p.Blu-ray Remux.AVC.DD 5.1)
Контейнер: .avi
Видео: 720x320, XviD 64, 23.976 fps, 1658 kbps
Аудио: 48 kHz, АС3, 6 ch, 384 kbps

General
Complete name : D:Nemesis.(1992).BDRip.[-=DoMiNo=-].avi
Format : AVI
Format/Info : Audio Video Interleave
File size : 1.37 GiB
Duration : 1h 35mn
Overall bit rate : 2 051 Kbps
Writing library : VirtualDub build 35491/release

Video
ID : 0
Format : MPEG-4 Visual
Format profile : Advanced Simple@L5
Format settings, BVOP : 2
Format settings, QPel : No
Format settings, GMC : No warppoints
Format settings, Matrix : Default (H.263)
Muxing mode : Packed bitstream
Codec ID : XVID
Codec ID/Hint : XviD
Duration : 1h 35mn
Bit rate : 1 658 Kbps
Width : 720 pixels
Height : 320 pixels
Display aspect ratio : 2.25:1
Frame rate : 23.976 fps
Color space : YUV
Chroma subsampling : 4:2:0
Bit depth : 8 bits
Scan type : Interlaced
Scan order : Top Field First
Compression mode : Lossy
Bits/(Pixel*Frame) : 0.300
Stream size : 1.11 GiB (81%)
Writing library : XviD 64

Audio
ID : 1
Format : AC-3
Format/Info : Audio Coding 3
Mode extension : CM (complete main)
Format settings, Endianness : Big
Codec ID : 2000
Duration : 1h 35mn
Bit rate mode : Constant
Bit rate : 384 Kbps
Channel(s) : 6 channels
Channel positions : Front: L C R, Side: L R, LFE
Sampling rate : 48.0 KHz
Bit depth : 16 bits
Compression mode : Lossy
Stream size : 263 MiB (19%)
Alignment : Aligned on interleaves
Interleave, duration : 42 ms (1.00 video frame)
Interleave, preload duration : 512 ms





загрузка...
Правила, инструкции, FAQ!!!
Торрент  Добавлен [08 июл 2014, 21:28] Скачать торрент
Скачать торрент
[ Размер 14.32 КБ / Просмотров 10 ]

Статус
Проверен 
 
Размер  1.37 ГБ
Приватный: Нет (DHT включён)
.torrent скачан  336
Как залить торрент? | Как скачать Torrent? | Как смотреть и слушать онлайн?  


     Отправить личное сообщение
   
Страница 1 из 1
Показать сообщения за:  Поле сортировки  
Начать новую тему Ответить на тему

   Похожие торренты   Автор   Ответы   Просмотры   Последнее сообщение 
В этой теме нет новых непрочитанных сообщений. Скачать торрент Проверен Немезида / Nemesis (1992) BDRip 720p

в форуме 720p | 1080p, Размер: 4.43 ГБ, Здоровье: 100%

Anonymous

0
6|0

26
309

09 авг 2014, 16:07

Anonymous Перейти к последнему сообщению

В этой теме нет новых непрочитанных сообщений. Скачать торрент Проверен Немезида 2: Невидимка / Nemesis 2: Nebula (1995) HDRip | A | Сербин

в форуме Фантастика, Фэнтези, Размер: 1.37 ГБ, Здоровье: 100%

Anonymous

0
17|1

32
269

08 июл 2014, 21:25

Anonymous Перейти к последнему сообщению

В этой теме нет новых непрочитанных сообщений. Скачать торрент Звёздный путь 10: Возмездие / Star Trek X: Nemesis (Стюарт Бейрд / Stuart Baird) [2002 г., фантастика, боевик, приключения, BDRip-AVC]

в форуме Фантастика, Фэнтези, Размер: 1.45 ГБ, Здоровье: 100%

Anonymous

0
56|19

47
0

22 апр 2014, 11:39

Anonymous Перейти к последнему сообщению

В этой теме нет новых непрочитанных сообщений. Скачать торрент Проверен Агата Кристи - Карибская тайна. Немезида [2015, PDF/DjVu, RUS]

в форуме Детективы и Боевики, Размер: 15.95 МБ, Здоровье: 100%

Anonymous

0
3|1

5
0

08 сен 2016, 21:28

Anonymous Перейти к последнему сообщению

В этой теме нет новых непрочитанных сообщений. Скачать торрент Проверен Сваллоу Джеймс - Warhammer 40000. Ересь Хоруса. Книга 12. Немезида [Gel2323 (ЛИ), 2013 г., 32 kbps, MP3]

в форуме Зарубежная фантастика, фэнтези, мистика, ужасы, Размер: 186.58 МБ, Здоровье: 0%

Anonymous

0
0|0

0
0

11 сен 2016, 10:34

Anonymous Перейти к последнему сообщению



Сейчас этот форум просматривают: нет зарегистрированных пользователей и гости: 1


Вы не можете начинать темы
Вы не можете отвечать на сообщения
Вы не можете редактировать свои сообщения
Вы не можете удалять свои сообщения
Вы не можете добавлять вложения

Перейти:  

!ВНИМАНИЕ!
 Ресурс не предоставляет электронные версии произведений, а занимается лишь коллекционированием и каталогизацией ссылок, присылаемых и публикуемых на форуме нашими читателями. Если вы являетесь правообладателем какого-либо представленного материала и не желаете чтобы ссылка на него находилась в нашем каталоге, свяжитесь с нами и мы незамедлительно удалим её. Файлы для обмена на трекере предоставлены пользователями сайта, и администрация не несёт ответственности за их содержание. Просьба не заливать файлы, защищенные авторскими правами, а также файлы нелегального содержания!