На всех торрентах на трекере установлена скидка на скачивание в размере 100 процентов(а).
 Возможность скачивания торрента НЕ зависит от ограничений при низком ратио, низком аплоаде, требуемом ратио или требуемом аплоаде.


Начать новую тему Ответить на тему
Статистика раздачи
Размер: 1.46 ГБ | Добавлен: 17 май 2014, 20:07 | Скачали: 0
Сидеров: 0  [0 байт/сек]    Личеров: 0  [0 байт/сек]
Пред. тема | След. тема 

Автор
Сообщение

СообщениеДобавлено: 17 май 2014, 20:07 

Крабат. Ученик колдуна / Krabat


Страна: Германия
Жанр: фэнтези, драма
Год выпуска: 2008
Продолжительность: 01:59:52
Перевод: Профессиональный (дублированный)
Cубтитры: нет
Оригинальная аудиодорожка: нет

Режиссер: Марко Кройцпайнтнер / Marco Kreuzpaintner

В ролях: Дэвид Кросс, Даниэль Брюль, Кристиан Редль, Роберт Стадлобер, Паула Каленберг, Анна Тальбах, Ханно Коффлер, Чарли Хюбнер, Мориц Грове, Том Влашиха, Свен Хёниг, Штефан Хашке, Том Ласс, Даниэль Фрипан, Даниэль Штайнер, Давид Фишбах, Отто Занд...

Описание: Во время Тридцатилетней войны осиротевший подросток Крабат скитается от деревни к деревне, прося милостыню. Однажды ему снится мельница, и он отправляется на её поиски. Придя на мельницу, Крабат становится одним из учеников её хозяина — колдуна, который обучает своих учеников чёрной магии. Но каждый год кто-то из учеников должен умереть, чтобы продлить жизнь колдуна, и только любовь может помочь спастись.

Качество видео: HDRip
Формат видео: AVI

Видео: MPEG-4 Visual at 1354 Кбит/сек; 720 x 304 (2.368) at 24.000 fps
Аудио: AC-3 at 384 Кбит/сек; 6 каналов, 48,0 КГц

Релиз от - MediaInfo
Общее
Полное имя : D:\Фильмы\Драмы\Крабат. Ученик колдуна\Krabat.2008.HDRip.XviD.1400MB. rip by [Assassin's Creed].avi
Формат : AVI
Формат/Информация : Audio Video Interleave
Размер файла : 1,46 Гбайт
Продолжительность : 1 ч. 59 м.
Общий поток : 1748 Кбит/сек
Программа кодирования : VirtualDubMod 1.5.10.2 (build 2540/release)
Библиотека кодирования : VirtualDubMod build 2540/release

Видео
Идентификатор : 0
Формат : MPEG-4 Visual
Профиль формата : Advanced Simple@L5
Параметр BVOP формата : 1
Параметр QPel формата : Нет
Параметр GMC формата : Без точки перехода
Параметр матрицы формата : Default (MPEG)
Идентификатор кодека : XVID
Идентификатор кодека/Подсказка : XviD
Продолжительность : 1 ч. 59 м.
Битрейт : 1354 Кбит/сек
Ширина : 720 пикселей
Высота : 304 пикселя
Соотношение сторон : 2,35:1
Частота кадров : 24,000 кадра/сек
Цветовое пространство : YUV
Субдискретизация насыщенности : 4:2:0
Битовая глубина : 8 бит
Тип развёртки : Прогрессивная
Метод сжатия : С потерями
Бит/(Пиксели*Кадры) : 0.258
Размер потока : 1,13 Гбайт (78%)
Библиотека кодирования : XviD 1.2.1 (UTC 2008-12-04)

Аудио
Идентификатор : 1
Формат : AC-3
Формат/Информация : Audio Coding 3
Расширение режима : CM (complete main)
Параметр Endianness формата : Big
Идентификатор кодека : 2000
Продолжительность : 1 ч. 59 м.
Вид битрейта : Постоянный
Битрейт : 384 Кбит/сек
Каналы : 6 каналов
Расположение каналов : Front: L C R, Side: L R, LFE
Частота : 48,0 КГц
Битовая глубина : 16 бит
Метод сжатия : С потерями
Размер потока : 329 Мбайт (22%)
Выравнивание : Разделение по промежуткам
Продолжительность промежутка : 42 мс. (1,00 видеокадр)
Время предзагрузки промежутка : 500 мс.
Скриншот c названием фильма
Скриншоты
загрузка...
Правила, инструкции, FAQ!!!
Торрент  Добавлен [17 май 2014, 20:07] Скачать торрент
Скачать торрент
[ Размер 15.16 КБ / Просмотров 7 ]

Статус  
 
Размер  1.46 ГБ
Приватный: Нет (DHT включён)
.torrent скачан  0
Как залить торрент? | Как скачать Torrent? | Как смотреть и слушать онлайн?  


     Отправить личное сообщение
   
Страница 1 из 1
Показать сообщения за:  Поле сортировки  
Начать новую тему Ответить на тему

   Похожие торренты   Автор   Ответы   Просмотры   Последнее сообщение 
В этой теме нет новых непрочитанных сообщений. Скачать торрент Там, где живут чудовища / Where the Wild Things Are (Спайк Джонз / Spike Jonze) [2009, США, Германия, фэнтези, драма, приключения, семейный, HDRip] DUB

в форуме Фантастика, Фэнтези, Размер: 751.6 МБ, Здоровье: 100%

Anonymous

0
47|16

52
1

16 фев 2014, 13:06

Anonymous Перейти к последнему сообщению

В этой теме нет новых непрочитанных сообщений. Скачать торрент Проверен [iPad] Выживут только любовники / Only Lovers Left Alive (Джим Джармуш / Jim Jarmusch ) [2013, Великобритания, Германия, Греция , Фэнтези, триллер, драма, HDRip, SD (576p)] DUB + Original

в форуме Фильмы для iPod, iPhone, iPad, Размер: 2.11 ГБ, Здоровье: 100%

Гость

0
55|18

37
1

13 май 2015, 23:59

Гость Перейти к последнему сообщению

В этой теме нет новых непрочитанных сообщений. Скачать торрент Мумия: Гробница Императора Драконов / The Mummy: Tomb of the Dragon Emperor (Роб Коэн / Rob Cohen) [2008, Германия, США, Канада, Боевик, Фэнтези, Приключения, HDRip-AVC] Dub

в форуме Боевики, Размер: 745.26 МБ, Здоровье: 100%

Anonymous

0
18|6

76
0

02 апр 2014, 08:21

Anonymous Перейти к последнему сообщению

В этой теме нет новых непрочитанных сообщений. Скачать торрент Сумерки / Twilight (Катрин Хардвик / Catherine Hardwicke) [2008 г., Триллер, фэнтези, драма, HDRip] MVO

в форуме Триллеры, Размер: 1.45 ГБ, Здоровье: 0%

Anonymous

0
0|0

38
0

13 фев 2014, 06:31

Anonymous Перейти к последнему сообщению

В этой теме нет новых непрочитанных сообщений. Скачать торрент Сумерки / Twilight (Катрин Хардвик / Catherine Hardwicke) [2008 г., Триллер, фэнтези, драма, HDRip] Дубляж

в форуме Триллеры, Размер: 2.19 ГБ, Здоровье: 0%

Anonymous

0
0|0

42
0

03 апр 2014, 12:43

Anonymous Перейти к последнему сообщению



Сейчас этот форум просматривают: нет зарегистрированных пользователей и гости: 1


Вы не можете начинать темы
Вы не можете отвечать на сообщения
Вы не можете редактировать свои сообщения
Вы не можете удалять свои сообщения
Вы не можете добавлять вложения

Перейти:  

!ВНИМАНИЕ!
 Ресурс не предоставляет электронные версии произведений, а занимается лишь коллекционированием и каталогизацией ссылок, присылаемых и публикуемых на форуме нашими читателями. Если вы являетесь правообладателем какого-либо представленного материала и не желаете чтобы ссылка на него находилась в нашем каталоге, свяжитесь с нами и мы незамедлительно удалим её. Файлы для обмена на трекере предоставлены пользователями сайта, и администрация не несёт ответственности за их содержание. Просьба не заливать файлы, защищенные авторскими правами, а также файлы нелегального содержания!