На всех торрентах на трекере установлена скидка на скачивание в размере 100 процентов(а).
 Возможность скачивания торрента НЕ зависит от ограничений при низком ратио, низком аплоаде, требуемом ратио или требуемом аплоаде.


Начать новую тему Ответить на тему
Статистика раздачи
Размер: 1.46 ГБ | Добавлен: 29 апр 2014, 13:54 | Скачали: 0
Сидеров: 17  [0 байт/сек]    Личеров: 5  [0 байт/сек]
Пред. тема | След. тема 

Автор
Сообщение

СообщениеДобавлено: 29 апр 2014, 13:54 

Исполнитель желаний 3: Камень Дьявола / Wishmaster 3: Beyond the Gates of Hell


Страна: Канада, США
Жанр: фэнтези, ужасы
Год выпуска: 2001
Продолжительность: 01:28:30

Перевод: Профессиональный (многоголосый закадровый)
Cубтитры: нет
Оригинальная аудиодорожка: нет

Режиссер: Крис Энджел / Chris Angel

В ролях: Джейсон Коннери, А.Дж. Кук, Тобиас Мелер, Луизетт Гейсс, Аарон Смолински, Даниэлла Евангелиста, Эммануэль Вожье, Джон Новак, Кейт Якула, Рик Скин

Описание: Исследуя таинственный старинный артефакт, известный на протяжении веков под названием «дьявольский камень», студентка Дайана случайно освободила заточенного в нем бессмертного Джинна. И в соответствии с древним пророчеством это ужасное порождение ада, наделенное даром исполнять людские желания ада, стремится погрузить Землю в вечную тьму и хаос. Теперь только три желания Дайаны отделяют человечество от полного уничтожения, и от нее зависит будущее всей земной цивилизации. Удастся ли ей остановить Джинна, пока этот могущественный демон ада не убил всех ее друзей и не пришел за ней самой? Или же Дайана окажется беспомощной перед дикой разрушительной силой зла, направленной против мира людей?


Качество видео: DVDRip
Формат видео: AVI

Видео: 704x528 (1.33:1), 25 fps, XviD build 50 ~1968 kbps avg, 0.21 bit/pixel
Аудио: 48 kHz, AC3 Dolby Digital, 3/2 (L,C,R,l,r) + LFE ch, ~384.00 kbps avg



MediaInfo
Формат : AVI
Формат/Информация : Audio Video Interleave
Размер файла : 1,46 Гбайт
Продолжительность : 1 ч. 28 м.
Общий поток : 2363 Кбит/сек
Программа кодирования : VirtualDubMod 1.5.10.3 | http://www.virtualdub-fr.org || (build 2550/release)
Библиотека кодирования : VirtualDubMod build 2550/release

Видео
Идентификатор : 0
Формат : MPEG-4 Visual
Профиль формата : Advanced Simple@L5
Параметр BVOP формата : 1
Параметр QPel формата : Нет
Параметр GMC формата : Без точки перехода
Параметр матрицы формата : Default (MPEG)
Идентификатор кодека : XVID
Идентификатор кодека/Подсказка : XviD
Продолжительность : 1 ч. 28 м.
Битрейт : 1969 Кбит/сек
Ширина : 704 пикселя
Высота : 528 пикселей
Соотношение сторон : 4:3
Частота кадров : 25,000 кадров/сек
Цветовое пространство : YUV
Субдискретизация насыщенности : 4:2:0
Битовая глубина : 8 бит
Тип развёртки : Прогрессивная
Метод сжатия : С потерями
Бит/(Пиксели*Кадры) : 0.212
Размер потока : 1,22 Гбайт (83%)
Библиотека кодирования : XviD 1.2.1 (UTC 2008-12-04)

Аудио
Идентификатор : 1
Формат : AC-3
Формат/Информация : Audio Coding 3
Расширение режима : CM (complete main)
Параметр Endianness формата : Big
Идентификатор кодека : 2000
Продолжительность : 1 ч. 28 м.
Вид битрейта : Постоянный
Битрейт : 384 Кбит/сек
Каналы : 6 каналов
Расположение каналов : Front: L C R, Side: L R, LFE
Частота : 48,0 КГц
Битовая глубина : 16 бит
Метод сжатия : С потерями
Размер потока : 243 Мбайт (16%)
Выравнивание : Разделение по промежуткам
Продолжительность промежутка : 40 мс. (1,00 видеокадр)
Время предзагрузки промежутка : 500 мс.


Скриншоты

загрузка...
Правила, инструкции, FAQ!!!
Торрент  Добавлен [29 апр 2014, 13:54] Скачать торрент
Скачать торрент
[ Размер 15.21 КБ / Просмотров 7 ]

Статус  
 
Размер  1.46 ГБ
Приватный: Нет (DHT включён)
.torrent скачан  0
Как залить торрент? | Как скачать Torrent? | Как смотреть и слушать онлайн?  


     Отправить личное сообщение
   
Страница 1 из 1
Показать сообщения за:  Поле сортировки  
Начать новую тему Ответить на тему

   Похожие торренты   Автор   Ответы   Просмотры   Последнее сообщение 
В этой теме нет новых непрочитанных сообщений. Скачать торрент Проверен Исполнитель желаний / Wishmaster (1997) DVDRip-AVC | P, A

в форуме Фантастика, Фэнтези, Размер: 2.17 ГБ, Здоровье: 100%

Гость

0
17|1

1622
2

13 июн 2016, 21:18

Гость Перейти к последнему сообщению

В этой теме нет новых непрочитанных сообщений. Скачать торрент Проверен Исполнитель желаний 2: Зло бессмертно / Wishmaster 2: Evil Never Dies (1999) WEB-DLRip-AVC | P, A

в форуме Фантастика, Фэнтези, Размер: 2.19 ГБ, Здоровье: 100%

Гость

0
12|0

1631
4

13 июн 2016, 21:21

Гость Перейти к последнему сообщению

В этой теме нет новых непрочитанных сообщений. Скачать торрент Проверен Исполнитель желаний 4: Пророчество сбылось / Wishmaster 4: The Prophecy Fulfilled (2002) WEB-DL 720p | P

в форуме 720p | 1080p, Размер: 3.33 ГБ, Здоровье: 100%

Гость

0
79|35

1630
178

13 июн 2016, 21:25

Гость Перейти к последнему сообщению

В этой теме нет новых непрочитанных сообщений. Скачать торрент Гарри Поттер и философский камень / Harry Potter and the Sorcerer's Stone (Крис Коламбус / Chris Columbus) [2001, Великобритания, Фэнтези, Приключения, Семейный, BDRip-AVC] Dub

в форуме Фантастика, Фэнтези, Размер: 3.71 ГБ, Здоровье: 100%

Anonymous

0
56|19

88
0

26 апр 2014, 20:57

Anonymous Перейти к последнему сообщению

В этой теме нет новых непрочитанных сообщений. Скачать торрент Сумерки. Сага. Новолуние / The Twilight Saga - New Moon (Крис Вайц / Chris Weitz) [2009 г., ужасы, триллер, фэнтези, мелодрама, драма, BDRip-AVC] Dub

в форуме Ужасы, Размер: 1.69 ГБ, Здоровье: 0%

Anonymous

0
0|0

92
0

03 апр 2014, 12:43

Anonymous Перейти к последнему сообщению



Сейчас этот форум просматривают: нет зарегистрированных пользователей и гости: 2


Вы не можете начинать темы
Вы не можете отвечать на сообщения
Вы не можете редактировать свои сообщения
Вы не можете удалять свои сообщения
Вы не можете добавлять вложения

Перейти:  

!ВНИМАНИЕ!
 Ресурс не предоставляет электронные версии произведений, а занимается лишь коллекционированием и каталогизацией ссылок, присылаемых и публикуемых на форуме нашими читателями. Если вы являетесь правообладателем какого-либо представленного материала и не желаете чтобы ссылка на него находилась в нашем каталоге, свяжитесь с нами и мы незамедлительно удалим её. Файлы для обмена на трекере предоставлены пользователями сайта, и администрация не несёт ответственности за их содержание. Просьба не заливать файлы, защищенные авторскими правами, а также файлы нелегального содержания!